Torrent Search | Torrent Meta Search | Widgets

Ohys Raws Fate Apocrypha 07 BS11 1280x720 x264 AAC

329.32 Mb
found 6 days ago
▲ seeders: 391 ▼ leechers:16
your vote:
real:
fake:
download torrent

Ohys Raws Fate Apocrypha 07 BS11 1280x720 x264 AAC torrent

Information about the torrent Ohys Raws Fate Apocrypha 07 BS11 1280x720 x264 AAC. Seeders, leechers and torrent status is updated several times per day.

If you want to download the video torrent Ohys Raws Fate Apocrypha 07 BS11 1280x720 x264 AAC you will need a torrent client.

Torrent Metasearch.

tracker
seeders
leechers
↓ torrent client compatible list

↑ hide torrent client compatible list

torrent contents

[Ohys-Raws] Fate Apocrypha - 07 (BS11 1280x720 x264 AAC).mp4 torrent

[Ohys-Raws] Fate Apocrypha - 07 (BS11 1280x720 x264 AAC).mp4329.32 Mb torrent search

Sample info:
Duration: 00:24:00.11, start: 0.000000, bitrate: 1918 kb/s
Stream #0:0	: Video: h264 (Main) (avc1 / 0x31637661), yuv420p(tv, bt709), 1280x720, 1698 kb/s, SAR 1:1 DAR 16:9, 23.97 fps, 23.98 tbr, 16k tbn, 47.95 tbc (default)
creation_time	: 2017-08-12 15:36:12
handler_name	: VideoHandler
Stream #0:1	: Audio: aac (LC) (mp4a / 0x6134706D), 48000 Hz, stereo, fltp, 212 kb/s (default)
creation_time	: 2017-08-12 15:36:12
handler_name	: SoundHandler
screenshots
Images are auto generated please report any inapropriate images
 

related search cloud

 apocrypha  fate  raws  ohys