Torrent Search | Torrent Meta Search | Widgets

TamilRockers at Vikram Vedha (2017) Tamil 720p HDRip x264 5 1 1 4GB ESubs mkv

1.46 Gb
found 7 days ago
▲ seeders: 1031 ▼ leechers:232
your vote:
real:
fake:
download torrent

TamilRockers at Vikram Vedha (2017) Tamil 720p HDRip x264 5 1 1 4GB ESubs mkv torrent

Information about the torrent TamilRockers at Vikram Vedha (2017) Tamil 720p HDRip x264 5 1 1 4GB ESubs mkv. Seeders, leechers and torrent status is updated everyday.

If you want to download the hdrip torrent TamilRockers at Vikram Vedha (2017) Tamil 720p HDRip x264 5 1 1 4GB ESubs mkv you will need a torrent client.

Torrent Metasearch.

tracker
seeders
leechers
↓ torrent client compatible list

↑ hide torrent client compatible list

torrent contents

www.TamilRockers.at - Vikram Vedha (2017) Tamil 720p HDRip x264 5.1 1.4GB ESubs.mkv torrent

www.TamilRockers.at - Vikram Vedha (2017) Tamil 720p HDRip x264 5.1 1.4GB ESubs.mkv1.46 Gb torrent search

Sample info:
Duration: 02:25:49.00, start: 0.000000, bitrate: 1433 kb/s
Stream #0:0(eng): Video: h264 (High), yuv420p, 1280x568 [SAR 1:1 DAR 160:71], 24 fps, 24 tbr, 1k tbn, 48 tbc (default) (forced)
title	: www.TamilRockers.at
BPS	: 1271587
BPS-eng	: 1271587
DURATION	: 02:25:49.000000000
DURATION-eng	: 02:25:49.000000000
NUMBER_OF_FRAMES: 209976
NUMBER_OF_FRAMES-eng: 209976
NUMBER_OF_BYTES : 1390639382
NUMBER_OF_BYTES-eng: 1390639382
_STATISTICS_WRITING_APP: mkvmerge v7.8.0 ('River Man') 64bit built on Mar 27 2015 16:31:37
_STATISTICS_WRITING_APP-eng: mkvmerge v7.8.0 ('River Man') 64bit built on Mar 27 2015 16:31:37
_STATISTICS_WRITING_DATE_UTC: 2017-08-11 23:47:33
_STATISTICS_WRITING_DATE_UTC-eng: 2017-08-11 23:47:33
_STATISTICS_TAGS: BPS DURATION NUMBER_OF_FRAMES NUMBER_OF_BYTES
_STATISTICS_TAGS-eng: BPS DURATION NUMBER_OF_FRAMES NUMBER_OF_BYTES
Stream #0:1(eng): Audio: ac3, 44100 Hz, 5.1(side), fltp, 160 kb/s (default) (forced)
title	: www.TamilRockers.at
BPS	: 160000
BPS-eng	: 160000
DURATION	: 02:25:49.000000000
DURATION-eng	: 02:25:49.000000000
NUMBER_OF_FRAMES: 251192
NUMBER_OF_FRAMES-eng: 251192
NUMBER_OF_BYTES : 174980006
NUMBER_OF_BYTES-eng: 174980006
_STATISTICS_WRITING_APP: mkvmerge v7.8.0 ('River Man') 64bit built on Mar 27 2015 16:31:37
_STATISTICS_WRITING_APP-eng: mkvmerge v7.8.0 ('River Man') 64bit built on Mar 27 2015 16:31:37
_STATISTICS_WRITING_DATE_UTC: 2017-08-11 23:47:33
_STATISTICS_WRITING_DATE_UTC-eng: 2017-08-11 23:47:33
_STATISTICS_TAGS: BPS DURATION NUMBER_OF_FRAMES NUMBER_OF_BYTES
_STATISTICS_TAGS-eng: BPS DURATION NUMBER_OF_FRAMES NUMBER_OF_BYTES
screenshots
Images are auto generated please report any inapropriate images
 

related search cloud

 hdrip  esubs  tamil  vedha  vikram  tamilrockers