Torrent Search | Torrent Meta Search | Widgets

Prison Break S05E03 720p HDTV x264 KILLERS ettv

       
942.92 Mb
found 2 months ago
▲ seeders: 312 ▼ leechers:20
your vote:
real:
fake:
download torrent

Prison Break S05E03 720p HDTV x264 KILLERS ettv torrent

Information about the torrent Prison Break S05E03 720p HDTV x264 KILLERS ettv. Seeders, leechers and torrent status is updated everyday.

If you want to download the tv torrent Prison Break S05E03 720p HDTV x264 KILLERS ettv you will need a torrent client.

Torrent Metasearch.

Torrent verified by thepiratebay.se.

tracker
seeders
leechers
↓ torrent client compatible list

↑ hide torrent client compatible list

torrent contents

Prison.Break.S05E03.720p.HDTV.x264-KILLERS[ettv] torrent

Prison.Break.S05E03.720p.HDTV.x264-KILLERS[ettv]
Prison.Break.S05E03.720p.HDTV.x264-KILLERS[ettv].mkv942.92 Mb torrent search
Torrent-Downloaded-from-ExtraTorrent.cc.txt169 bytes torrent search

Sample info:
Duration: 00:43:28.77, start: 0.000000, bitrate: 3031 kb/s
Stream #0:0: Video: h264 (High), yuv420p(tv, bt709/unknown/unknown), 1280x720 [SAR 1:1 DAR 16:9], 23.98 fps, 23.98 tbr, 1k tbn, 47.95 tbc (default)
Stream #0:1: Audio: ac3, 48000 Hz, stereo, fltp, 384 kb/s (default)
screenshots
Images are auto generated please report any inapropriate images
 

related search cloud

 ettv  prison  killers  hdtv  break  extratorrent  torrent  downloaded