Torrent Search | Torrent Meta Search | Widgets

HorribleSubs Re Creators 17 720p mkv

341.53 Mb
found 6 days ago
▲ seeders: 438 ▼ leechers:9
your vote:
real:
fake:
download torrent

HorribleSubs Re Creators 17 720p mkv torrent

Information about the torrent HorribleSubs Re Creators 17 720p mkv. Seeders, leechers and torrent status is updated everyday.

If you want to download the hdrip torrent HorribleSubs Re Creators 17 720p mkv you will need a torrent client.

Torrent Metasearch.

tracker
seeders
leechers
↓ torrent client compatible list

↑ hide torrent client compatible list

torrent contents

[HorribleSubs] Re-Creators - 17 [720p].mkv torrent

[HorribleSubs] Re-Creators - 17 [720p].mkv341.53 Mb torrent search

Sample info:
Duration: 00:23:40.01, start: 0.000000, bitrate: 2017 kb/s
Stream #0:0: Video: h264 (High), yuv420p(tv, bt709), 1280x720 [SAR 1:1 DAR 16:9], 23.98 fps, 23.98 tbr, 1k tbn, 47.95 tbc (default)
BPS	: 1888534
BPS-eng	: 1888534
DURATION	: 00:23:40.002000000
DURATION-eng	: 00:23:40.002000000
NUMBER_OF_FRAMES: 34046
NUMBER_OF_FRAMES-eng: 34046
NUMBER_OF_BYTES : 335215354
NUMBER_OF_BYTES-eng: 335215354
_STATISTICS_WRITING_APP: no_variable_data
_STATISTICS_WRITING_APP-eng: no_variable_data
_STATISTICS_WRITING_DATE_UTC: 1970-01-01 00:00:00
_STATISTICS_WRITING_DATE_UTC-eng: 1970-01-01 00:00:00
_STATISTICS_TAGS: BPS DURATION NUMBER_OF_FRAMES NUMBER_OF_BYTES
_STATISTICS_TAGS-eng: BPS DURATION NUMBER_OF_FRAMES NUMBER_OF_BYTES
Stream #0:1: Audio: aac (LC), 48000 Hz, stereo, fltp (default)
BPS	: 125375
BPS-eng	: 125375
DURATION	: 00:23:40.010000000
DURATION-eng	: 00:23:40.010000000
NUMBER_OF_FRAMES: 66563
NUMBER_OF_FRAMES-eng: 66563
NUMBER_OF_BYTES : 22254229
NUMBER_OF_BYTES-eng: 22254229
_STATISTICS_WRITING_APP: no_variable_data
_STATISTICS_WRITING_APP-eng: no_variable_data
_STATISTICS_WRITING_DATE_UTC: 1970-01-01 00:00:00
_STATISTICS_WRITING_DATE_UTC-eng: 1970-01-01 00:00:00
_STATISTICS_TAGS: BPS DURATION NUMBER_OF_FRAMES NUMBER_OF_BYTES
_STATISTICS_TAGS-eng: BPS DURATION NUMBER_OF_FRAMES NUMBER_OF_BYTES
Stream #0:2(eng): Subtitle: ass (default)
BPS	: 97
BPS-eng	: 97
DURATION	: 00:22:05.570000000
DURATION-eng	: 00:22:05.570000000
NUMBER_OF_FRAMES: 277
NUMBER_OF_FRAMES-eng: 277
NUMBER_OF_BYTES : 16137
NUMBER_OF_BYTES-eng: 16137
_STATISTICS_WRITING_APP: no_variable_data
_STATISTICS_WRITING_APP-eng: no_variable_data
_STATISTICS_WRITING_DATE_UTC: 1970-01-01 00:00:00
_STATISTICS_WRITING_DATE_UTC-eng: 1970-01-01 00:00:00
_STATISTICS_TAGS: BPS DURATION NUMBER_OF_FRAMES NUMBER_OF_BYTES
_STATISTICS_TAGS-eng: BPS DURATION NUMBER_OF_FRAMES NUMBER_OF_BYTES
Stream #0:3: Attachment: ttf
filename	: OpenSans-Semibold.ttf
mimetype	: application/x-truetype-font
screenshots
Images are auto generated please report any inapropriate images
 

related search cloud

 creators  horriblesubs