Torrent Search | Torrent Meta Search | Widgets

Thor The Dark World (2013) iTALiAN AC3 BRRip XviD T4P3

1.48 Gb
found 7 months ago
▲ seeders: 35 ▼ leechers:4
your vote:
real:
fake:
Direct Download
THANK YOU
download torrent
  Direct Downloadsponsored

Thor The Dark World (2013) iTALiAN AC3 BRRip XviD T4P3 torrent

Information about the torrent Thor The Dark World (2013) iTALiAN AC3 BRRip XviD T4P3. Seeders, leechers and torrent status is updated everyday.

If you want to download the hdrip torrent Thor The Dark World (2013) iTALiAN AC3 BRRip XviD T4P3 you will need a torrent client.

Torrent Metasearch.

tracker
seeders
leechers
↓ torrent client compatible list

↑ hide torrent client compatible list

Help torrentproject.se to stay alive .
Add links of torrentproject.se in your favorite forum, blog, youtube, facebook, twitter etc.
reviews
140
torrent contents

Thor.The.Dark.World.2013.iTALiAN.AC3.BRRip.XviD-T4P3.avi torrent

Thor.The.Dark.World.2013.iTALiAN.AC3.BRRip.XviD-T4P3.avi1.48 Gb torrent search

Sample info:
Duration: 01:52:03.24, start: 0.000000, bitrate: 1885 kb/s
Stream #0:0: Video: mpeg4 (Advanced Simple Profile) (XVID / 0x44495658), yuv420p, 720x304 [SAR 1:1 DAR 45:19], 25 tbr, 25 tbn, 25 tbc
Stream #0:1: Audio: ac3 ([0] [0][0] / 0x2000), 48000 Hz, 5.1(side), s16, 384 kb/s
screenshots
Thor The Dark World torrent screenshot AB6CA55779259B2DFD798CE36F6D40D1047448B1 Thor The Dark World  torrent screenshot ab6ca55779259b2dfd798ce36f6d40d1047448b1 torrent Thor The Dark World
Thor.The.Dark.World.2013.iTALiAN.AC3.BRRip.XviD-T4P3.avi images are auto generated please report any inapropriate images
 

related search cloud

 brrip  xvid  italian  world  dark  thor