Torrent Search | Torrent Meta Search | Widgets

Mamma ho perso l aereo

       
1.37 Gb
found 3 years ago
▲ seeders: 16 ▼ leechers:5
your vote:
real:
fake:
THANK YOU
download torrent
  Direct Downloadsponsored

Mamma ho perso l aereo torrent

Information about the torrent Mamma ho perso l aereo. Seeders, leechers and torrent status is updated several times per day.

If you want to download the video torrent Mamma ho perso l aereo you will need a torrent client.

Torrent Metasearch.

Torrent verified by torlock.com.

tracker
seeders
leechers
↓ torrent client compatible list

↑ hide torrent client compatible list

reviews
140
torrent contents

Mamma.ho.perso.l.aereo torrent

Mamma.ho.perso.l.aereo
Xvid.ITA.Mamma.ho.perso.l'aereo.AC3.1of2.Actarus1981.avi700.71 Mb torrent search
Xvid.ITA.Mamma.ho.perso.l'aereo.AC3.2of2.Actarus1981.avi697.14 Mb torrent search

Sample info:
Duration: 00:45:34.16, start: 0.000000, bitrate: 2149 kb/s
Stream #0.0: Video: mpeg4 (Simple Profile), yuv420p, 640x352 [PAR 1:1 DAR 20:11], 25 tbr, 25 tbn, 25 tbc
Stream #0.1: Audio: ac3, 48000 Hz, stereo, s16, 192 kb/s
screenshots
Mamma ho perso l torrent screenshot ABBDD3A64FBF6735E6DC73D63B89627018490CE2 Mamma ho perso l  torrent screenshot abbdd3a64fbf6735e6dc73d63b89627018490ce2 torrent Mamma ho perso l
Mamma.ho.perso.l.aereo images are auto generated please report any inapropriate images
you may be interested in these torrents seeders leechers size found
Divx ITA Mamma ho perso l aereo     28 4 691.42 Mb 4 years ago

[Divx-ITA] Mamma ho perso laereo.avi


DivX ita Mamma ho Riperso l Aereo e Mi Sono Smarrito a New York     10 2 687.82 Mb 3 years ago

(DivX.ita).-.Mamma.ho.Riperso.l'Aereo.e.Mi.Sono.Smarrito.a.New.York.avi


Mamma Ho Perso L Aereo     9 1 1.37 Gb 3 years ago

Xvid.ITA.Mamma.ho.perso.l'aereo.AC3.1of2.Actarus1981.avi Xvid.ITA.Mamma.ho.perso.l'aereo.AC3.2


Mamma ho allagato la casa (2002)     6 2 1.4 Gb 1 year ago

Mamma ho allagato la casa 2002.avi


Mamma Ho Preso Il Morbillo (1998) iTALiAN DVDRip XviD Foolish Cr3w     3 2 696.55 Mb 4 years ago

Mamma.Ho.Preso.Il.Morbillo.1998.iTALiAN.DVDRip.XviD-Foolish.Cr3w.avi


Mamma Ho Allagato La Casa DVDRip 1 3 1 688.28 Mb 4 years ago

Mamma Ho Allagato La Casa (dvdrip)(1).avi


DVD5 ITA ENG FRA Mamma ho perso l aereo 2 1 4.33 Gb 4 years ago

VIDEO_TS.BUP VIDEO_TS.IFO VIDEO_TS.VOB VTS_01_0.BUP


Mamma ho riperso l aereo 1 1 1.36 Gb 3 years ago

xvid.ita.mamma.ho.riperso.laereo.ac3.wlf.cd1.avi xvid.ita.mamma.ho.riperso.laereo.ac3.wlf.cd1.eng.srt 0


Mamma Ho Allagato La Casa (2002) iTALiAN DVDRip XviD Foolish Cr3w 1 0 697.06 Mb 9 months ago

Mamma.Ho.Allagato.La.Casa.2002.iTALiAN.DVDRip.XviD-Foolish.Cr3w.avi


 

related search cloud

 mamma  perso  actarus  xvid  aereo