Torrent Search | Torrent Meta Search | Widgets

The Age Of Shadows (2016) YTS AG

1.02 Gb
found 5 days ago
▲ seeders: 1518 ▼ leechers:597
your vote:
real:
fake:
download torrent

The Age Of Shadows (2016) YTS AG torrent

Information about the torrent The Age Of Shadows (2016) YTS AG. Seeders, leechers and torrent status is updated several times per day.

If you want to download the hdrip torrent The Age Of Shadows (2016) YTS AG you will need a torrent client.

Torrent Metasearch.

loading...
tracker
seeders
leechers
↓ torrent client compatible list

↑ hide torrent client compatible list

comments/reviews
anonymous 22 Apr 2017, 12:04:50
eng subtitles here: https://www.opensubtitles.org/en/subtitles/6949636/the-age-of-shadows-en
140
torrent contents

The Age Of Shadows (2016) [YTS.AG] torrent

The Age Of Shadows (2016) [YTS.AG]
WWW.YTS.AG.jpg103.35 Kb torrent search
The.Age.Of.Shadows.2016.720p.BluRay.x264-[YTS.AG].mp41.02 Gb torrent search

Sample info:
Duration: 02:20:44.02, start: 0.042667, bitrate: 1039 kb/s
Stream #0:0	: Video: h264 (High) (avc1 / 0x31637661), yuv420p, 1280x534 [SAR 801:800 DAR 12:5], 899 kb/s, 23.98 fps, 23.98 tbr, 24k tbn, 47.95 tbc (default)
handler_name	: VideoHandler
Stream #0:1	: Audio: aac (LC) (mp4a / 0x6134706D), 48000 Hz, stereo, fltp, 133 kb/s (default)
handler_name	: SoundHandler
screenshots
Images are auto generated please report any inapropriate images
 

related search cloud

 shadows  bluray