Torrent Search | Torrent Meta Search | Widgets

SOE 992

1.05 Gb
found 1 year ago
▲ seeders: 51 ▼ leechers:7
your vote:
real:
fake:
Direct Download
THANK YOU
download torrent
  Direct Downloadsponsored

SOE 992 torrent

Information about the torrent SOE 992. Seeders, leechers and torrent status is updated several times per day.

If you want to download the video torrent SOE 992 you will need a torrent client.

Torrent Metasearch.

tracker
seeders
leechers
↓ torrent client compatible list

↑ hide torrent client compatible list

Help torrentproject.se to stay alive .
Add links of torrentproject.se in your favorite forum, blog, youtube, facebook, twitter etc.
reviews
anonymous 18 Feb 2014, 03:02:42
엠게이 화력 지리노 ㅋㅋㅋ
140
torrent contents

SOE-992 torrent

SOE-992
3xplanet_SOE-992.avi1.05 Gb torrent search

Sample info:
Duration: 02:01:55.02, start: 0.000000, bitrate: 1229 kb/s
Stream #0:0(eng): Video: h264 (High) (avc1 / 0x31637661), yuv420p, 720x396 [SAR 1:1 DAR 20:11], 1099 kb/s, 29.97 fps, 29.97 tbr, 30k tbn, 59.94 tbc
creation_time	: 2013-09-04 00:45:05
handler_name	: Video Media Handler
Stream #0:1(eng): Audio: aac (mp4a / 0x6134706D), 48000 Hz, stereo, s16, 126 kb/s
creation_time	: 2013-09-04 00:45:05
handler_name	: Sound Media Handler
screenshots
SOE 992 torrent screenshot AD716F3849185EEC73CC3CF935B6B7E0A5D8AF43 SOE 992 torrent screenshot ad716f3849185eec73cc3cf935b6b7e0a5d8af43 torrent SOE 992
SOE-992 images are auto generated please report any inapropriate images
 

related search cloud

 xplanet