Torrent Search | Torrent Meta Search | Widgets

The Trip lsd classic Roger Corman (1967)

699.1 Mb
found 6 years ago
▲ seeders: 17 ▼ leechers:1
your vote:
real:
fake:
download torrent

The Trip lsd classic Roger Corman (1967) torrent

Information about the torrent The Trip lsd classic Roger Corman (1967). Seeders, leechers and torrent status is updated several times per day.

If you want to download the video torrent The Trip lsd classic Roger Corman (1967) you will need a torrent client.

Torrent Metasearch.

tracker
seeders
leechers
↓ torrent client compatible list

↑ hide torrent client compatible list

torrent contents

The Trip (lsd) [ classic Roger Corman 1967 ] torrent

The Trip (lsd) [ classic Roger Corman 1967 ]
The Trip (lsd) [ classic Roger Corman 1967 ].avi699.1 Mb torrent search
The Trip (read me].txt4.45 Kb torrent search

Sample info:
Duration: 01:19:25.80, start: 0.000000, bitrate: 1230 kb/s
Stream #0:0: Video: mpeg4 (XVID / 0x44495658), yuv420p, 640x352 [SAR 1:1 DAR 20:11], 23.98 tbr, 23.98 tbn, 23.98 tbc
Stream #0:1: Audio: mp3 (U[0][0][0] / 0x0055), 48000 Hz, mono, s16, 78 kb/s
screenshots
Images are auto generated please report any inapropriate images
 

related search cloud

 trip  corman  roger  claic  read