Torrent Search | Torrent Meta Search | Widgets

Inzest Mama Und Ihre Versauten Tochter GERMAN XXX

899.25 Mb
found 1 year ago
▲ seeders: 3 ▼ leechers:3
your vote:
real:
fake:
Direct Download
THANK YOU
download torrent
  Direct Downloadsponsored

Inzest Mama Und Ihre Versauten Tochter GERMAN XXX torrent

Information about the torrent Inzest Mama Und Ihre Versauten Tochter GERMAN XXX. Seeders, leechers and torrent status is updated everyday.

If you want to download the adult torrent Inzest Mama Und Ihre Versauten Tochter GERMAN XXX you will need a torrent client.

Torrent Metasearch.

tracker
seeders
leechers
↓ torrent client compatible list

↑ hide torrent client compatible list

Help torrentproject.se to stay alive .
Add links of torrentproject.se in your favorite forum, blog, youtube, facebook, twitter etc.
reviews
140
torrent contents

Inzest-Mama.Und.Ihre.Versauten.Tochter.GERMAN.XXX torrent

Inzest-Mama.Und.Ihre.Versauten.Tochter.GERMAN.XXX
Inzest-Mama.Und.Ihre.Versauten.Tochter.GERMAN.XXX.avi899.25 Mb torrent search

Sample info:
Duration: 01:32:17.76, start: 0.000000, bitrate: 1362 kb/s
Stream #0:0: Video: mpeg4 (Advanced Simple Profile) (XVID / 0x44495658), yuv420p, 608x336 [SAR 1:1 DAR 38:21], 25 tbr, 25 tbn, 25 tbc
Stream #0:1: Audio: ac3 ([0] [0][0] / 0x2000), 48000 Hz, stereo, s16, 192 kb/s
screenshots
Inzest Mama Und Ihre torrent screenshot B212C302C347C2A375FCA3A6DA00AA3E55DE3B3D Inzest Mama Und Ihre  torrent screenshot b212c302c347c2a375fca3a6da00aa3e55de3b3d torrent Inzest Mama Und Ihre
Inzest-Mama.Und.Ihre.Versauten.Tochter.GERMAN.XXX images are auto generated please report any inapropriate images
 

related search cloud

 tochter  german  versauten  ihre  mama  inzest