Torrent Search | Torrent Meta Search | Widgets

Indian UNSEEN 16 By Pornvilla

2.06 Gb
found 1 year ago
▲ seeders: 8 ▼ leechers:9
your vote:
real:
fake:
Direct Download
THANK YOU
download torrent
  Direct Downloadsponsored

Indian UNSEEN 16 By Pornvilla torrent

Information about the torrent Indian UNSEEN 16 By Pornvilla. Seeders, leechers and torrent status is updated everyday.

If you want to download the milf torrent Indian UNSEEN 16 By Pornvilla you will need a torrent client.

Torrent Metasearch.

tracker
seeders
leechers
↓ torrent client compatible list

↑ hide torrent client compatible list

Help torrentproject.se to stay alive .
Add links of torrentproject.se in your favorite forum, blog, youtube, facebook, twitter etc.
reviews
140
torrent contents

Indian UNSEEN 16 By Pornvilla torrent

Indian UNSEEN 16 By Pornvilla
shillong_sex_scandal_aditya_goswami_(new).mp4202.87 Mb torrent search
aruna_raj_sex_scandal13_(new).mp4169.74 Mb torrent search
aruna_raj_sex_scandal1_(new).mp4139.71 Mb torrent search
konika_on_her_honeymoon_in_las_vegas_1_(new).mp483.67 Mb torrent search
mature_paki_couple_pussy_licking_1_(new).mp480.78 Mb torrent search
indian_boy_fucking_british_girl_(new).mp464.96 Mb torrent search
indian_student_fucked_by_class_mates_(new).mp459.33 Mb torrent search
aruna_raj_sex_scandal12_(new).mp455.04 Mb torrent search
komal_bhabhi_in_pink_saree_(new).mp441.12 Mb torrent search
mature_assam_couple_homemade_(new).mp439.19 Mb torrent search
aruna_raj_sex_scandal14_(new).mp438.95 Mb torrent search
dhaka_angel_rashmie-on_webcam_(new).mp438.22 Mb torrent search
driver_with_kaamwali_bai_2_(new).mp436.42 Mb torrent search
gomti_nagar_lucknow_bhabhi_showing_off_(new).mp435.12 Mb torrent search
_srilankan_couple_honeymoon_(new).mp433.87 Mb torrent search
desi_teen_khusbhu_shower_sex_(new).mp432.65 Mb torrent search
doctor_remya_with_dildo_fun_(new).mp432.28 Mb torrent search
ludhiana_mature_wife_with_young_bf_bj_(new).mp430.57 Mb torrent search
mature_pussy_nicely_fucked_2_(new).mp429.62 Mb torrent search
indian_webcam_babe_with_pointy_nips_(new).mp426.9 Mb torrent search
konika_on_her_honeymoon_in_las_vegas_2_(new).mp425.93 Mb torrent search
bhabhi_getting_cum_on_boobs_(new).mp425.64 Mb torrent search
mature_pakistani_couple_hard-sex_(new).mp424.36 Mb torrent search
konika_on_her_honeymoon_in_las_vegas_3_(new).mp424.34 Mb torrent search
busty_sikh_housewife_with_hubby_1_(new).mp423.69 Mb torrent search
bhabhi_showing_her_holes_on_webcam_(new).mp4 torrent search

Sample info:
Duration: 00:44:05.56, start: 0.000000, bitrate: 643 kb/s
Stream #0:0	: Video: mpeg4 (Simple Profile) (mp4v / 0x7634706D), yuv420p, 360x240 [SAR 1:1 DAR 3:2], 510 kb/s, 29.97 fps, 29.97 tbr, 2997 tbn, 2997 tbc
creation_time	: 2013-05-23 17:27:07
handler_name	: VideoHandler
Stream #0:1	: Audio: aac (mp4a / 0x6134706D), 48000 Hz, stereo, s16, 127 kb/s
creation_time	: 2013-05-23 17:27:07
handler_name	: SoundHandler
screenshots
Indian UNSEEN 16 By torrent screenshot B7A5B092D1EAAD9C7D6E8834F159B66B54616ECD Indian UNSEEN 16 By  torrent screenshot b7a5b092d1eaad9c7d6e8834f159b66b54616ecd torrent Indian UNSEEN 16 By
Indian UNSEEN 16 By Pornvilla images are auto generated please report any inapropriate images
 

related search cloud

 scandal  mature  aruna  couple  indian  bhabhi  honeymoon  vegas  webcam  konika