Torrent Search | Torrent Meta Search | Widgets

RAW Punishment Absolute XXX Gay Porn

       
1.27 Gb
found 3 years ago
▲ seeders: 28 ▼ leechers:3
your vote:
real:
fake:
Direct Download
THANK YOU
download torrent
  Direct Downloadsponsored

RAW Punishment Absolute XXX Gay Porn torrent

Information about the torrent RAW Punishment Absolute XXX Gay Porn. Seeders, leechers and torrent status is updated several times per day.

If you want to download the adult torrent RAW Punishment Absolute XXX Gay Porn you will need a torrent client.

Torrent Metasearch.

Torrent verified by kat.ph.

tracker
seeders
leechers
↓ torrent client compatible list

↑ hide torrent client compatible list

Help torrentproject.se to stay alive .
Add links of torrentproject.se in your favorite forum, blog, youtube, facebook, twitter etc.
reviews
140
torrent contents

RAW Punishment - Absolute XXX - Gay Porn.avi torrent

RAW Punishment - Absolute XXX - Gay Porn.avi1.27 Gb torrent search

Sample info:
Duration: 02:25:00.59, start: 0.000000, bitrate: 1253 kb/s
Stream #0.0: Video: mpeg4 (Advanced Simple Profile), yuv420p, 720x400 [PAR 1:1 DAR 9:5], 29.97 tbr, 29.97 tbn, 29.98 tbc
Stream #0.1: Audio: ac3, 48000 Hz, stereo, s16, 192 kb/s
screenshots
RAW Punishment Absolute XXX torrent screenshot B85497DC21A010F2F25D6867424CDA64AF212C8D RAW Punishment Absolute XXX  torrent screenshot b85497dc21a010f2f25d6867424cda64af212c8d torrent RAW Punishment Absolute XXX
RAW Punishment - Absolute XXX - Gay Porn.avi images are auto generated please report any inapropriate images
you may be interested in these torrents seeders leechers size found
RAW Punishment Absolute XXX 1 0 1.27 Gb 2 years ago

RAW Punishment - Absolute XXX.avi


 

related search cloud

 porn  absolute  punishment