Torrent Search | Torrent Meta Search | Widgets

The Mummy (2017) HD TS x264 CPG

       
2.25 Gb
found 2 months ago
▲ seeders: 1641 ▼ leechers:269
your vote:
real:
fake:
download torrent

The Mummy (2017) HD TS x264 CPG torrent

Information about the torrent The Mummy (2017) HD TS x264 CPG. Seeders, leechers and torrent status is updated everyday.

If you want to download the video torrent The Mummy (2017) HD TS x264 CPG you will need a torrent client.

Torrent Metasearch.

Torrent verified by thepiratebay.se.

tracker
seeders
leechers
↓ torrent client compatible list

↑ hide torrent client compatible list

torrent contents

The Mummy 2017 HD-TS x264-CPG torrent

The Mummy 2017 HD-TS x264-CPG
Sample.mkv16.83 Mb torrent search
The Mummy 2017 HD-TS x264-CPG.mkv2.24 Gb torrent search
www.24hd.cc.txt57 bytes torrent search

Sample info:
Duration: 01:39:07.83, start: 0.000000, bitrate: 3229 kb/s
Stream #0:0(eng): Video: h264 (High), yuv420p(tv, smpte170m), 720x320 [SAR 1:1 DAR 9:4], 30 fps, 30 tbr, 1k tbn, 60 tbc (default)
BPS	: 3037236
BPS-eng	: 3037236
DURATION	: 01:39:07.833000000
DURATION-eng	: 01:39:07.833000000
NUMBER_OF_FRAMES: 178435
NUMBER_OF_FRAMES-eng: 178435
NUMBER_OF_BYTES : 2258121596
NUMBER_OF_BYTES-eng: 2258121596
_STATISTICS_WRITING_APP: mkvmerge v9.9.0 ('Pick Up') 64bit
_STATISTICS_WRITING_APP-eng: mkvmerge v9.9.0 ('Pick Up') 64bit
_STATISTICS_WRITING_DATE_UTC: 2017-06-14 18:21:28
_STATISTICS_WRITING_DATE_UTC-eng: 2017-06-14 18:21:28
_STATISTICS_TAGS: BPS DURATION NUMBER_OF_FRAMES NUMBER_OF_BYTES
_STATISTICS_TAGS-eng: BPS DURATION NUMBER_OF_FRAMES NUMBER_OF_BYTES
Stream #0:1(eng): Audio: aac (LC), 44100 Hz, stereo, fltp (default)
BPS	: 189664
BPS-eng	: 189664
DURATION	: 01:39:07.791000000
DURATION-eng	: 01:39:07.791000000
NUMBER_OF_FRAMES: 256150
NUMBER_OF_FRAMES-eng: 256150
NUMBER_OF_BYTES : 141010575
NUMBER_OF_BYTES-eng: 141010575
_STATISTICS_WRITING_APP: mkvmerge v9.9.0 ('Pick Up') 64bit
_STATISTICS_WRITING_APP-eng: mkvmerge v9.9.0 ('Pick Up') 64bit
_STATISTICS_WRITING_DATE_UTC: 2017-06-14 18:21:28
_STATISTICS_WRITING_DATE_UTC-eng: 2017-06-14 18:21:28
_STATISTICS_TAGS: BPS DURATION NUMBER_OF_FRAMES NUMBER_OF_BYTES
_STATISTICS_TAGS-eng: BPS DURATION NUMBER_OF_FRAMES NUMBER_OF_BYTES
screenshots
Images are auto generated please report any inapropriate images
 

related search cloud

 mummy  sample