Torrent Search | Torrent Meta Search | Widgets

The Lorax (2012) DVDRip Jaybob

702.72 Mb
found 2 years ago
▲ seeders: 32 ▼ leechers:6
your vote:
real:
fake:
Direct Download
THANK YOU
download torrent
  Direct Downloadsponsored

The Lorax (2012) DVDRip Jaybob torrent

Information about the torrent The Lorax (2012) DVDRip Jaybob. Seeders, leechers and torrent status is updated everyday.

If you want to download the dvdrip torrent The Lorax (2012) DVDRip Jaybob you will need a torrent client.

Torrent Metasearch.

tracker
seeders
leechers
↓ torrent client compatible list

↑ hide torrent client compatible list

Help torrentproject.se to stay alive .
Add links of torrentproject.se in your favorite forum, blog, youtube, facebook, twitter etc.
reviews
140
torrent contents

The Lorax {2012} DVDRIP. Jaybob torrent

The Lorax {2012} DVDRIP. Jaybob
The Lorax {2012} DVDRIP. Jaybob.avi700.39 Mb torrent search
Jaybob's_Movies_Toolbar_Internet Explorer.exe1.63 Mb torrent search
jaybob's_movies_Toolbar_Firefox.xpi713.31 Kb torrent search
Important October 27, 2011 Please read.txt641 bytes torrent search
Jaybobs Home Page.url111 bytes torrent search

Sample info:
Duration: 01:26:18.84, start: 0.000000, bitrate: 1134 kb/s
Stream #0.0: Video: mpeg4, yuv420p, 640x336 [PAR 1:1 DAR 40:21], 23.98 tbr, 23.98 tbn, 23.98 tbc
Stream #0.1: Audio: mp3, 44100 Hz, 2 channels, s16, 128 kb/s
screenshots
The Lorax 2012 DVDRip torrent screenshot C01FD491713C14F99931999549584A6AD3906AFF The Lorax 2012 DVDRip  torrent screenshot c01fd491713c14f99931999549584a6ad3906aff torrent The Lorax 2012 DVDRip
The Lorax {2012} DVDRIP. Jaybob images are auto generated please report any inapropriate images
 

related search cloud

 jaybob  lorax  movies  toolbar  dvdrip  jaybobs  read  home  page  please