Torrent Search | Torrent Meta Search | Widgets

Suits S07E05 720p HDTV x264 AVS rarbg

       
668.96 Mb
found 8 days ago
▲ seeders: 2213 ▼ leechers:333
your vote:
real:
fake:
download torrent

Suits S07E05 720p HDTV x264 AVS rarbg torrent

Information about the torrent Suits S07E05 720p HDTV x264 AVS rarbg. Seeders, leechers and torrent status is updated everyday.

If you want to download the tv torrent Suits S07E05 720p HDTV x264 AVS rarbg you will need a torrent client.

Torrent Metasearch.

Torrent verified by thepiratebay.se.

tracker
seeders
leechers
↓ torrent client compatible list

↑ hide torrent client compatible list

torrent contents

Suits.S07E05.720p.HDTV.x264-AVS[rarbg] torrent

Suits.S07E05.720p.HDTV.x264-AVS[rarbg]
RARBG.txt30 bytes torrent search
Suits.S07E05.720p.HDTV.x264-AVS.mkv668.96 Mb torrent search
suits.s07e05.720p.hdtv.x264-avs.nfo53 bytes torrent search

Sample info:
Duration: 00:42:25.46, start: 0.000000, bitrate: 2204 kb/s
Stream #0:0: Video: h264 (High), yuv420p(tv, bt709/unknown/unknown), 1280x718, SAR 1:1 DAR 640:359, 23.98 fps, 23.98 tbr, 1k tbn, 47.95 tbc (default)
Stream #0:1: Audio: ac3, 48000 Hz, 5.1(side), fltp, 384 kb/s (default)
screenshots
Images are auto generated please report any inapropriate images
 

related search cloud

 suits  hdtv  rarbg