Torrent Search | Torrent Meta Search | Widgets

Fantastic skinny teen blonde SiteRip

348.72 Mb
found 3 years ago
▲ seeders: 0 ▼ leechers:1
your vote:
real:
fake:
download torrent

Fantastic skinny teen blonde SiteRip torrent

Information about the torrent Fantastic skinny teen blonde SiteRip. Seeders, leechers and torrent status is updated everyday.

If you want to download the video torrent Fantastic skinny teen blonde SiteRip you will need a torrent client.

Torrent Metasearch.

comments/reviews
140
torrent contents

Fantastic skinny teen blonde - [SiteRip] torrent

Fantastic skinny teen blonde - [SiteRip]
Fantastic skinny teen blonde - [SiteRip].wmv348.72 Mb torrent search
Torrent downloaded from PublicHash.com.txt414 bytes torrent search

Sample info:
Duration: 00:27:29.41, start: 0.000000, bitrate: 1773 kb/s
Stream #0:0(eng): Audio: wmav2 (a[1][0][0] / 0x0161), 44100 Hz, stereo, s16, 128 kb/s
Stream #0:1(eng): Video: wmv3 (Main) (WMV3 / 0x33564D57), yuv420p, 530x320, 1638 kb/s, 25 tbr, 1k tbn, 1k tbc
screenshots
Images are auto generated please report any inapropriate images
 

related search cloud

 fantastic  blonde  siterip  skinny  publichash  torrent  downloaded