Torrent Search | Torrent Meta Search | Widgets

MomXXX Linette Natural Perfection NEW October 18 (2013) mov

489.12 Mb
found 10 months ago
▲ seeders: 4 ▼ leechers:2
your vote:
real:
fake:
Direct Download
THANK YOU
download torrent
  Direct Downloadsponsored

MomXXX Linette Natural Perfection NEW October 18 (2013) mov torrent

Information about the torrent MomXXX Linette Natural Perfection NEW October 18 (2013) mov. Seeders, leechers and torrent status is updated several times per day.

If you want to download the video torrent MomXXX Linette Natural Perfection NEW October 18 (2013) mov you will need a torrent client.

Torrent Metasearch.

tracker
seeders
leechers
↓ torrent client compatible list

↑ hide torrent client compatible list

Help torrentproject.se to stay alive .
Add links of torrentproject.se in your favorite forum, blog, youtube, facebook, twitter etc.
reviews
140
torrent contents

MomXXX - Linette (Natural Perfection) NEW October 18, 2013.mov torrent

MomXXX - Linette (Natural Perfection) NEW October 18, 2013.mov489.12 Mb torrent search

Sample info:
Duration: 00:21:56.70, start: 0.000000, bitrate: 3116 kb/s
Stream #0:0(eng): Video: h264 (High) (avc1 / 0x31637661), yuv420p, 960x540 [SAR 1:1 DAR 16:9], 3001 kb/s, 24 fps, 24 tbr, 24 tbn, 48 tbc
handler_name	: DataHandler
timecode	: 01:00:00:00
Stream #0:1(eng): Audio: aac (mp4a / 0x6134706D), 44100 Hz, stereo, s16, 108 kb/s
handler_name	: DataHandler
Stream #0:2(eng): Data: none (tmcd / 0x64636D74)
handler_name	: DataHandler
timecode	: 01:00:00:00
screenshots
MomXXX Linette Natural Perfection torrent screenshot C67610F5DCC9E81155C71911B6CC7F40CAA194F9 MomXXX Linette Natural Perfection  torrent screenshot c67610f5dcc9e81155c71911b6cc7f40caa194f9 torrent MomXXX Linette Natural Perfection
MomXXX - Linette (Natural Perfection) NEW October 18, 2013.mov images are auto generated please report any inapropriate images
 

related search cloud

 october  perfection  natural  linette  momxxx