Torrent Search | Torrent Meta Search | Widgets

Archer (2009) S08E03 720p HDTV x264 AVS eztv mkv

389.93 Mb
found 2 months ago
▲ seeders: 97 ▼ leechers:4
your vote:
real:
fake:
download torrent

Archer (2009) S08E03 720p HDTV x264 AVS eztv mkv torrent

Information about the torrent Archer (2009) S08E03 720p HDTV x264 AVS eztv mkv. Seeders, leechers and torrent status is updated everyday.

If you want to download the tv torrent Archer (2009) S08E03 720p HDTV x264 AVS eztv mkv you will need a torrent client.

Torrent Metasearch.

tracker
seeders
leechers
↓ torrent client compatible list

↑ hide torrent client compatible list

torrent contents

Archer.2009.S08E03.720p.HDTV.x264-AVS[eztv].mkv torrent

Archer.2009.S08E03.720p.HDTV.x264-AVS[eztv].mkv389.93 Mb torrent search

Sample info:
Duration: 00:19:26.79, start: 0.000000, bitrate: 2803 kb/s
Stream #0:0: Video: h264 (High), yuv420p(tv, bt709/unknown/unknown), 1280x720, SAR 1:1 DAR 16:9, 23.98 fps, 23.98 tbr, 1k tbn, 47.95 tbc (default)
Stream #0:1: Audio: ac3, 48000 Hz, 5.1(side), fltp, 384 kb/s (default)
screenshots
Images are auto generated please report any inapropriate images
 

related search cloud

 eztv  hdtv  archer