Torrent Search | Torrent Meta Search | Widgets

Sexy Student Bodies XXX DVDRip x264 STARLETS

802.14 Mb
found 3 years ago
▲ seeders: 0 ▼ leechers:1
your vote:
real:
fake:
download torrent

Sexy Student Bodies XXX DVDRip x264 STARLETS torrent

Information about the torrent Sexy Student Bodies XXX DVDRip x264 STARLETS. Seeders, leechers and torrent status is updated several times per day.

If you want to download the adult torrent Sexy Student Bodies XXX DVDRip x264 STARLETS you will need a torrent client.

Torrent Metasearch.

No trackers with seeders or leechers have been found, this doesn't mean that the torrent Sexy Student Bodies XXX DVDRip x264 STARLETS is dead
comments/reviews
140
torrent contents

Sexy.Student.Bodies.XXX.DVDRip.x264-STARLETS torrent

Sexy.Student.Bodies.XXX.DVDRip.x264-STARLETS
1.jpg259.61 Kb torrent search
front.jpg41.09 Kb torrent search
starlets-sestbo.mp4801.83 Mb torrent search
starlets-sestbo.nfo7.25 Kb torrent search

Sample info:
Duration: 01:48:51.60, start: 0.000000, bitrate: 1029 kb/s
Stream #0:0	: Video: h264 (High) (avc1 / 0x31637661), yuv420p, 704x388 [SAR 1:1 DAR 176:97], 895 kb/s, 23.98 fps, 23.98 tbr, 24k tbn, 47.95 tbc
creation_time	: 2013-08-10 00:39:02
handler_name	: 264#trackID=1:[email protected]
Stream #0:1	: Audio: aac (mp4a / 0x6134706D), 48000 Hz, stereo, s16, 130 kb/s
creation_time	: 2013-08-10 00:09:39
handler_name	: Sound Media Handler
screenshots
Images are auto generated please report any inapropriate images
 

related search cloud

 starlets  sestbo  front  dvdrip  student  bodies  sexy