Torrent Search | Torrent Meta Search | Widgets

Sole A Catinelle (2013) iTALiAN MD CAM XviD BmA

1.39 Gb
found 11 months ago
▲ seeders: 23 ▼ leechers:0
your vote:
real:
fake:
Direct Download
THANK YOU
download torrent
  Direct Downloadsponsored

Sole A Catinelle (2013) iTALiAN MD CAM XviD BmA torrent

Information about the torrent Sole A Catinelle (2013) iTALiAN MD CAM XviD BmA. Seeders, leechers and torrent status is updated everyday.

If you want to download the video torrent Sole A Catinelle (2013) iTALiAN MD CAM XviD BmA you will need a torrent client.

Torrent Metasearch.

tracker
seeders
leechers
↓ torrent client compatible list

↑ hide torrent client compatible list

Help torrentproject.se to stay alive .
Add links of torrentproject.se in your favorite forum, blog, youtube, facebook, twitter etc.
reviews
140
torrent contents

Sole.A.Catinelle.2013.iTALiAN.MD.CAM.XviD-BmA.avi torrent

Sole.A.Catinelle.2013.iTALiAN.MD.CAM.XviD-BmA.avi1.39 Gb torrent search

Sample info:
Duration: 01:22:41.84, start: 0.000000, bitrate: 2408 kb/s
Stream #0:0: Video: mpeg4 (Advanced Simple Profile) (XVID / 0x44495658), yuv420p, 720x336 [SAR 1:1 DAR 15:7], 25 tbr, 25 tbn, 25 tbc
Stream #0:1: Audio: mp3 (U[0][0][0] / 0x0055), 48000 Hz, stereo, s16, 127 kb/s
screenshots
Sole A Catinelle 2013 torrent screenshot CB237E1F80E54828951B1E5CBD50518A8BA6D336 Sole A Catinelle 2013  torrent screenshot cb237e1f80e54828951b1e5cbd50518a8ba6d336 torrent Sole A Catinelle 2013
Sole.A.Catinelle.2013.iTALiAN.MD.CAM.XviD-BmA.avi images are auto generated please report any inapropriate images
 

related search cloud

 xvid  italian  catinelle  sole