Torrent Search | Torrent Meta Search | Widgets

Fargo S03E01 HDTV x264 FLEET eztv mkv

311.58 Mb
found 4 months ago
▲ seeders: 53 ▼ leechers:5
your vote:
real:
fake:
download torrent

Fargo S03E01 HDTV x264 FLEET eztv mkv torrent

Information about the torrent Fargo S03E01 HDTV x264 FLEET eztv mkv. Seeders, leechers and torrent status is updated everyday.

If you want to download the tv torrent Fargo S03E01 HDTV x264 FLEET eztv mkv you will need a torrent client.

Torrent Metasearch.

tracker
seeders
leechers
↓ torrent client compatible list

↑ hide torrent client compatible list

torrent contents

Fargo.S03E01.HDTV.x264-FLEET[eztv].mkv torrent

Fargo.S03E01.HDTV.x264-FLEET[eztv].mkv311.58 Mb torrent search

Sample info:
Duration: 01:05:09.66, start: 0.000000, bitrate: 668 kb/s
Stream #0:0(eng): Video: h264 (High), yuv420p(tv, bt709/unknown/unknown), 720x358 [SAR 1:1 DAR 360:179], 23.98 fps, 23.98 tbr, 1k tbn, 47.95 tbc (default)
Stream #0:1(eng): Audio: aac (LC), 48000 Hz, stereo, fltp (default)
screenshots
Images are auto generated please report any inapropriate images
 

related search cloud

 eztv  fleet  hdtv  fargo