Torrent Search | Torrent Meta Search | Widgets

The Mist S01E08 720p SPIK WEBRip x264 TARDIS

377.76 Mb
found 7 days ago
▲ seeders: 661 ▼ leechers:82
your vote:
real:
fake:
download torrent

The Mist S01E08 720p SPIK WEBRip x264 TARDIS torrent

Information about the torrent The Mist S01E08 720p SPIK WEBRip x264 TARDIS. Seeders, leechers and torrent status is updated everyday.

If you want to download the tv torrent The Mist S01E08 720p SPIK WEBRip x264 TARDIS you will need a torrent client.

Torrent Metasearch.

tracker
seeders
leechers
↓ torrent client compatible list

↑ hide torrent client compatible list

torrent contents

www.Torrenting.com - The.Mist.S01E08.720p.SPIK.WEBRip.x264-TARDIS torrent

www.Torrenting.com - The.Mist.S01E08.720p.SPIK.WEBRip.x264-TARDIS
The.Mist.S01E08.720p.SPIK.WEBRip.x264-TARDIS.mkv377.76 Mb torrent search
Torrent Downloaded From www.torrenting.me.txt79 bytes torrent search

Sample info:
Duration: 00:43:14.82, start: 0.000000, bitrate: 1221 kb/s
Stream #0:0: Video: h264 (High), yuv420p, 1280x720 [SAR 1:1 DAR 16:9], 23.81 fps, 23.81 tbr, 1k tbn, 47.95 tbc (default)
BPS	: 1090487
BPS-eng	: 1090487
DURATION	: 00:43:14.798000000
DURATION-eng	: 00:43:14.798000000
NUMBER_OF_FRAMES: 62209
NUMBER_OF_FRAMES-eng: 62209
NUMBER_OF_BYTES : 353699410
NUMBER_OF_BYTES-eng: 353699410
_STATISTICS_WRITING_APP: mkvmerge v9.3.1 ('Mask Machine') 64bit
_STATISTICS_WRITING_APP-eng: mkvmerge v9.3.1 ('Mask Machine') 64bit
_STATISTICS_WRITING_DATE_UTC: 2017-08-11 13:40:54
_STATISTICS_WRITING_DATE_UTC-eng: 2017-08-11 13:40:54
_STATISTICS_TAGS: BPS DURATION NUMBER_OF_FRAMES NUMBER_OF_BYTES
_STATISTICS_TAGS-eng: BPS DURATION NUMBER_OF_FRAMES NUMBER_OF_BYTES
Stream #0:1(eng): Audio: aac (LC), 48000 Hz, stereo, fltp (default)
BPS	: 127991
BPS-eng	: 127991
DURATION	: 00:43:14.820000000
DURATION-eng	: 00:43:14.820000000
NUMBER_OF_FRAMES: 121624
NUMBER_OF_FRAMES-eng: 121624
NUMBER_OF_BYTES : 41514330
NUMBER_OF_BYTES-eng: 41514330
_STATISTICS_WRITING_APP: mkvmerge v9.3.1 ('Mask Machine') 64bit
_STATISTICS_WRITING_APP-eng: mkvmerge v9.3.1 ('Mask Machine') 64bit
_STATISTICS_WRITING_DATE_UTC: 2017-08-11 13:40:54
_STATISTICS_WRITING_DATE_UTC-eng: 2017-08-11 13:40:54
_STATISTICS_TAGS: BPS DURATION NUMBER_OF_FRAMES NUMBER_OF_BYTES
_STATISTICS_TAGS-eng: BPS DURATION NUMBER_OF_FRAMES NUMBER_OF_BYTES
screenshots
Images are auto generated please report any inapropriate images
 

related search cloud

 tardis  torrenting  webrip  spik  mist  downloaded  torrent