Torrent Search | Torrent Meta Search | Widgets

Theory Of Obscurity A Film About The Residents (2015) YTS AG

643.68 Mb
found 2 years ago
▲ seeders: 9 ▼ leechers:3
your vote:
real:
fake:

Theory of Obscurity: A Film About the Residents

2015 · 87 min · 6.9/10 (248 votes) in imdb
Documentary, Comedy, History, Musical
Director: Don Hardy Jr.
Writer: Don Hardy Jr.
Theory of Obscurity tells the story of the renegade sound and video collective known as The Residents...
download torrent

Theory Of Obscurity A Film About The Residents (2015) YTS AG torrent

Information about the torrent Theory Of Obscurity A Film About The Residents (2015) YTS AG. Seeders, leechers and torrent status is updated everyday.

If you want to download the hdrip torrent Theory Of Obscurity A Film About The Residents (2015) YTS AG you will need a torrent client.

Torrent Metasearch.

tracker
seeders
leechers
↓ torrent client compatible list

↑ hide torrent client compatible list

torrent contents

Theory Of Obscurity A Film About The Residents (2015) [YTS.AG] torrent

Theory Of Obscurity A Film About The Residents (2015) [YTS.AG]
WWW.YTS.AG.jpg103.35 Kb torrent search
Theory.Of.Obscurity.A.Film.About.The.Residents.2015.720p.BluRay.x264-[YTS.AG].mp4643.58 Mb torrent search

Sample info:
Duration: 01:27:30.84, start: 0.042667, bitrate: 1028 kb/s
Stream #0:0	: Video: h264 (High) (avc1 / 0x31637661), yuv420p, 1280x714 [SAR 1071:1072 DAR 120:67], 899 kb/s, 23.98 fps, 23.98 tbr, 24k tbn, 47.95 tbc (default)
handler_name	: VideoHandler
Stream #0:1	: Audio: aac (LC) (mp4a / 0x6134706D), 48000 Hz, stereo, fltp, 121 kb/s (default)
handler_name	: SoundHandler
screenshots
Images are auto generated please report any inapropriate images
 

related search cloud

 residents  theory  film  obscurity  bluray