Torrent Search | Torrent Meta Search | Widgets

Pornoakce 4 Czech Bukkake And Gangbang Amateur Party 07 03 (2007) Funnel

561.96 Mb
found 1 year ago
▲ seeders: 10 ▼ leechers:3
your vote:
real:
fake:
Direct Download
THANK YOU
download torrent
  Direct Downloadsponsored

Pornoakce 4 Czech Bukkake And Gangbang Amateur Party 07 03 (2007) Funnel torrent

Information about the torrent Pornoakce 4 Czech Bukkake And Gangbang Amateur Party 07 03 (2007) Funnel. Seeders, leechers and torrent status is updated several times per day.

If you want to download the video torrent Pornoakce 4 Czech Bukkake And Gangbang Amateur Party 07 03 (2007) Funnel you will need a torrent client.

Torrent Metasearch.

tracker
seeders
leechers
↓ torrent client compatible list

↑ hide torrent client compatible list

Help torrentproject.se to stay alive .
Add links of torrentproject.se in your favorite forum, blog, youtube, facebook, twitter etc.
reviews
140
torrent contents

Pornoakce 4 - Czech Bukkake And Gangbang Amateur Party 07.03.2007 Funnel.avi torrent

Pornoakce 4 - Czech Bukkake And Gangbang Amateur Party 07.03.2007 Funnel.avi561.96 Mb torrent search

Sample info:
Duration: 00:54:39.44, start: 0.000000, bitrate: 1437 kb/s
Stream #0.0(cze): Audio: wmav2, 44100 Hz, 2 channels, s16, 64 kb/s
Stream #0.1(cze): Video: wmv3 (Main), yuv420p, 640x360, 1369 kb/s, 30 tbr, 1k tbn, 1k tbc
screenshots
Pornoakce 4 Czech Bukkake torrent screenshot D78E032183A17DFBC41AEA376FCD6CA0DB55B622 Pornoakce 4 Czech Bukkake  torrent screenshot d78e032183a17dfbc41aea376fcd6ca0db55b622 torrent Pornoakce 4 Czech Bukkake
Pornoakce 4 - Czech Bukkake And Gangbang Amateur Party 07.03.2007 Funnel.avi images are auto generated please report any inapropriate images
 

related search cloud

 party  funnel  amateur  gangbang  czech  bukkake  pornoakce