Torrent Search | Torrent Meta Search | Widgets

Guardians of the Galaxy Vol 2 (2017) 720p HD TS

       
3.23 Gb
found 2 months ago
▲ seeders: 385 ▼ leechers:53
your vote:
real:
fake:
download torrent

Guardians of the Galaxy Vol 2 (2017) 720p HD TS torrent

Information about the torrent Guardians of the Galaxy Vol 2 (2017) 720p HD TS. Seeders, leechers and torrent status is updated everyday.

If you want to download the hdrip torrent Guardians of the Galaxy Vol 2 (2017) 720p HD TS you will need a torrent client.

Torrent Metasearch.

Torrent verified by thepiratebay.se.

tracker
seeders
leechers
↓ torrent client compatible list

↑ hide torrent client compatible list

torrent contents

Guardians of the Galaxy Vol.2 2017 720p HD-TS torrent

Guardians of the Galaxy Vol.2 2017 720p HD-TS
Guardians of the Galaxy Vol.2 2017 720p FM-TS x264-TITAN.YOU.ARE.LATE.lol.mkv3.21 Gb torrent search
Sample.mkv25.05 Mb torrent search

Sample info:
Duration: 02:15:57.57, start: 0.000000, bitrate: 3376 kb/s
Stream #0:0: Video: h264 (High), yuvj420p(pc, bt709), 1074x432 [SAR 1:1 DAR 179:72], 30 fps, 30 tbr, 1k tbn, 60 tbc (default)
BPS	: 3184555
BPS-eng	: 3184555
DURATION	: 02:15:57.566000000
DURATION-eng	: 02:15:57.566000000
NUMBER_OF_FRAMES: 244727
NUMBER_OF_FRAMES-eng: 244727
NUMBER_OF_BYTES : 3247277281
NUMBER_OF_BYTES-eng: 3247277281
_STATISTICS_WRITING_APP: mkvmerge v9.9.0 ('Pick Up') 64bit
_STATISTICS_WRITING_APP-eng: mkvmerge v9.9.0 ('Pick Up') 64bit
_STATISTICS_WRITING_DATE_UTC: 2017-06-16 06:33:22
_STATISTICS_WRITING_DATE_UTC-eng: 2017-06-16 06:33:22
_STATISTICS_TAGS: BPS DURATION NUMBER_OF_FRAMES NUMBER_OF_BYTES
_STATISTICS_TAGS-eng: BPS DURATION NUMBER_OF_FRAMES NUMBER_OF_BYTES
Stream #0:1(eng): Audio: aac (LC), 44100 Hz, stereo, fltp (default)
BPS	: 189663
BPS-eng	: 189663
DURATION	: 02:15:57.541000000
DURATION-eng	: 02:15:57.541000000
NUMBER_OF_FRAMES: 351316
NUMBER_OF_FRAMES-eng: 351316
NUMBER_OF_BYTES : 193398482
NUMBER_OF_BYTES-eng: 193398482
_STATISTICS_WRITING_APP: mkvmerge v9.9.0 ('Pick Up') 64bit
_STATISTICS_WRITING_APP-eng: mkvmerge v9.9.0 ('Pick Up') 64bit
_STATISTICS_WRITING_DATE_UTC: 2017-06-16 06:33:22
_STATISTICS_WRITING_DATE_UTC-eng: 2017-06-16 06:33:22
_STATISTICS_TAGS: BPS DURATION NUMBER_OF_FRAMES NUMBER_OF_BYTES
_STATISTICS_TAGS-eng: BPS DURATION NUMBER_OF_FRAMES NUMBER_OF_BYTES
screenshots
Images are auto generated please report any inapropriate images
 

related search cloud

 guardians  galaxy  sample  titan  late