Torrent Search | Torrent Meta Search | Widgets

NIF Team Naruto Shippuden 323 Sub ITA 720p

241.34 Mb
found 1 year ago
▲ seeders: 2 ▼ leechers:0
your vote:
real:
fake:
Direct Download
THANK YOU
download torrent
  Direct Downloadsponsored

NIF Team Naruto Shippuden 323 Sub ITA 720p torrent

Information about the torrent NIF Team Naruto Shippuden 323 Sub ITA 720p. Seeders, leechers and torrent status is updated several times per day.

If you want to download the hdrip torrent NIF Team Naruto Shippuden 323 Sub ITA 720p you will need a torrent client.

Torrent Metasearch.

tracker
seeders
leechers
↓ torrent client compatible list

↑ hide torrent client compatible list

Help torrentproject.se to stay alive .
Add links of torrentproject.se in your favorite forum, blog, youtube, facebook, twitter etc.
reviews
140
torrent contents

[NIF Team] Naruto Shippuden 323 Sub ITA (720p).mp4 torrent

[NIF Team] Naruto Shippuden 323 Sub ITA (720p).mp4241.34 Mb torrent search

Sample info:
Duration: 00:23:09.76, start: 0.000000, bitrate: 1456 kb/s
Stream #0:0	: Video: h264 (High) (avc1 / 0x31637661), yuv420p, 1280x720 [SAR 1:1 DAR 16:9], 1326 kb/s, 23.98 fps, 23.98 tbr, 23977 tbn, 47.95 tbc
creation_time	: 2013-08-01 14:19:59
handler_name	: 264#trackID=1:fps=23.977@GPAC0.5.1-DEV-rev4283
Stream #0:1	: Audio: aac (mp4a / 0x6134706D), 44100 Hz, stereo, s16, 127 kb/s
creation_time	: 2013-08-01 14:00:51
handler_name	: Sound Media Handler
screenshots
NIF Team Naruto Shippuden torrent screenshot DA7C3978C9FCFF9FD66AA5F1172C4480CAA2F59A NIF Team Naruto Shippuden  torrent screenshot da7c3978c9fcff9fd66aa5f1172c4480caa2f59a torrent NIF Team Naruto Shippuden
[NIF Team] Naruto Shippuden 323 Sub ITA (720p).mp4 images are auto generated please report any inapropriate images
 

related search cloud

 shippuden  naruto  team