Torrent Search | Torrent Meta Search | Widgets

Bonnie Rotten Squirt Gasms

207.48 Mb
found 1 year ago
▲ seeders: 2 ▼ leechers:1
your vote:
real:
fake:
Direct Download
THANK YOU
download torrent
  Direct Downloadsponsored

Bonnie Rotten Squirt Gasms torrent

Information about the torrent Bonnie Rotten Squirt Gasms. Seeders, leechers and torrent status is updated everyday.

If you want to download the video torrent Bonnie Rotten Squirt Gasms you will need a torrent client.

Torrent Metasearch.

tracker
seeders
leechers
↓ torrent client compatible list

↑ hide torrent client compatible list

Help torrentproject.se to stay alive .
Add links of torrentproject.se in your favorite forum, blog, youtube, facebook, twitter etc.
reviews
140
torrent contents

Bonnie Rotten - Squirt Gasms.mp4 torrent

Bonnie Rotten - Squirt Gasms.mp4207.48 Mb torrent search

Sample info:
Duration: 00:27:26.76, start: 0.000000, bitrate: 1056 kb/s
Stream #0:0(eng): Video: h264 (Main) (avc1 / 0x31637661), yuv420p, 640x360 [SAR 1:1 DAR 16:9], 1002 kb/s, 23.98 fps, 23.98 tbr, 2997 tbn, 47.95 tbc
creation_time	: 2013-06-21 16:33:40
handler_name	: VideoHandler
Stream #0:1(eng): Audio: aac (mp4a / 0x6134706D), 48000 Hz, stereo, s16, 48 kb/s
creation_time	: 2013-06-21 16:33:40
handler_name	: SoundHandler
screenshots
Bonnie Rotten Squirt Gasms torrent screenshot DA96E4ABF874A749132045E9A9E8A2683C1F70EB Bonnie Rotten Squirt Gasms torrent screenshot da96e4abf874a749132045e9a9e8a2683c1f70eb torrent Bonnie Rotten Squirt Gasms
Bonnie Rotten - Squirt Gasms.mp4 images are auto generated please report any inapropriate images
 

related search cloud

 gasms  squirt  rotten  bonnie