Torrent Search | Torrent Meta Search | Widgets

The Hudsucker Proxy (1994)

       
1.37 Gb
found 4 years ago
▲ seeders: 8 ▼ leechers:3
your vote:
real:
fake:
Direct Download
THANK YOU
download torrent
  Direct Downloadsponsored

The Hudsucker Proxy (1994) torrent

Information about the torrent The Hudsucker Proxy (1994). Seeders, leechers and torrent status is updated everyday.

If you want to download the video torrent The Hudsucker Proxy (1994) you will need a torrent client.

Torrent Metasearch.

Torrent verified by kat.ph.

tracker
seeders
leechers
↓ torrent client compatible list

↑ hide torrent client compatible list

Help torrentproject.se to stay alive .
Add links of torrentproject.se in your favorite forum, blog, youtube, facebook, twitter etc.
reviews
140
torrent contents

The Hudsucker Proxy (1994) torrent

The Hudsucker Proxy (1994)
The Hudsucker Proxy.avi1.37 Gb torrent search
The Hudsucker Proxy.nfo1.92 Kb torrent search

Sample info:
Duration: 01:50:46.51, start: 0.000000, bitrate: 1766 kb/s
Stream #0.0: Video: mpeg4 (Advanced Simple Profile), yuv420p, 592x320 [PAR 1:1 DAR 37:20], 23.98 tbr, 23.98 tbn, 23.98 tbc
Stream #0.1: Audio: ac3, 48000 Hz, stereo, s16, 192 kb/s
screenshots
The Hudsucker Proxy 1994 torrent screenshot DA983173E3C1688E02DFB6926524954A4DE814E0 The Hudsucker Proxy 1994  torrent screenshot da983173e3c1688e02dfb6926524954a4de814e0 torrent The Hudsucker Proxy 1994
The Hudsucker Proxy (1994) images are auto generated please report any inapropriate images
 

related search cloud

 proxy  hudsucker