Torrent Search | Torrent Meta Search | Widgets

Ghost In The Shell (2017) YTS AG

791.83 Mb
found 15 days ago
▲ seeders: 4895 ▼ leechers:1153
your vote:
real:
fake:
download torrent

Ghost In The Shell (2017) YTS AG torrent

Information about the torrent Ghost In The Shell (2017) YTS AG. Seeders, leechers and torrent status is updated several times per day.

If you want to download the hdrip torrent Ghost In The Shell (2017) YTS AG you will need a torrent client.

Torrent Metasearch.

tracker
seeders
leechers
↓ torrent client compatible list

↑ hide torrent client compatible list

torrent contents

Ghost In The Shell (2017) [YTS.AG] torrent

Ghost In The Shell (2017) [YTS.AG]
WWW.YTS.AG.jpg103.35 Kb torrent search
Ghost.In.The.Shell.2017.720p.BluRay.x264-[YTS.AG].mp4791.73 Mb torrent search

Sample info:
Duration: 01:46:56.75, start: 0.042667, bitrate: 1035 kb/s
Stream #0:0	: Video: h264 (High) (avc1 / 0x31637661), yuv420p, 1280x714 [SAR 1071:1072 DAR 120:67], 899 kb/s, 23.98 fps, 23.98 tbr, 13978 tbn, 47.95 tbc (default)
handler_name	: VideoHandler
Stream #0:1	: Audio: aac (LC) (mp4a / 0x6134706D), 48000 Hz, stereo, fltp, 129 kb/s (default)
handler_name	: SoundHandler
screenshots
Images are auto generated please report any inapropriate images
 

related search cloud

 ghost  shell  bluray