Torrent Search | Torrent Meta Search | Widgets

SHEMALE ANNE PRODUCES A LARGE AMOUNT OF CUM ON THE TABLE SILVERDUST

423.58 Mb
found 3 years ago
▲ seeders: 0 ▼ leechers:1
your vote:
real:
fake:
download torrent

SHEMALE ANNE PRODUCES A LARGE AMOUNT OF CUM ON THE TABLE SILVERDUST torrent

Information about the torrent SHEMALE ANNE PRODUCES A LARGE AMOUNT OF CUM ON THE TABLE SILVERDUST. Seeders, leechers and torrent status is updated everyday.

If you want to download the shemale torrent SHEMALE ANNE PRODUCES A LARGE AMOUNT OF CUM ON THE TABLE SILVERDUST you will need a torrent client.

Torrent Metasearch.

tracker
seeders
leechers
↓ torrent client compatible list

↑ hide torrent client compatible list

comments/reviews
140
torrent contents

SHEMALE ANNE PRODUCES A LARGE AMOUNT OF CUM ON THE TABLE[SILVERDUST] torrent

SHEMALE ANNE PRODUCES A LARGE AMOUNT OF CUM ON THE TABLE[SILVERDUST]
silver-top.jpg109 Kb torrent search
silver-top.flv423.47 Mb torrent search

Sample info:
Duration: 00:11:39.72, start: 0.000000, bitrate: 5076 kb/s
Stream #0:0: Video: flv1, yuv420p, 1180x664, 5058 kb/s, 30 tbr, 1k tbn, 1k tbc
Stream #0:1: Audio: mp3, 44100 Hz, stereo, s16, 131 kb/s
screenshots
Images are auto generated please report any inapropriate images
 

related search cloud

 silver  table  silverdust  amount  large  anne  produces  shemale