Torrent Search | Torrent Meta Search | Widgets

Prison Break 503 FASTSUB VOSTFR HDTV XviD T9

350.38 Mb
found 4 months ago
▲ seeders: 312 ▼ leechers:5
your vote:
real:
fake:
download torrent

Prison Break 503 FASTSUB VOSTFR HDTV XviD T9 torrent

Information about the torrent Prison Break 503 FASTSUB VOSTFR HDTV XviD T9. Seeders, leechers and torrent status is updated everyday.

If you want to download the tv torrent Prison Break 503 FASTSUB VOSTFR HDTV XviD T9 you will need a torrent client.

Torrent Metasearch.

tracker
seeders
leechers
↓ torrent client compatible list

↑ hide torrent client compatible list

torrent contents

[ Torrent9.info ] Prison.Break.503.FASTSUB.VOSTFR.HDTV.XviD-T9.avi torrent

[ Torrent9.info ] Prison.Break.503.FASTSUB.VOSTFR.HDTV.XviD-T9.avi350.38 Mb torrent search

Sample info:
Duration: 00:43:28.80, start: 0.000000, bitrate: 1126 kb/s
Stream #0:0: Video: mpeg4 (Advanced Simple Profile) (XVID / 0x44495658), yuv420p, 640x360 [SAR 1:1 DAR 16:9], 988 kb/s, 25 fps, 25 tbr, 25 tbn, 25 tbc
Stream #0:1: Audio: mp3 (U[0][0][0] / 0x0055), 48000 Hz, stereo, s16p, 128 kb/s
screenshots
Images are auto generated please report any inapropriate images
 

related search cloud

 vostfr  hdtv  xvid  fastsub  break  info  prison  torrent