Torrent Search | Torrent Meta Search | Widgets

Mi iz budushego

2.06 Gb
found 3 years ago
▲ seeders: 6 ▼ leechers:10
your vote:
real:
fake:
THANK YOU
download torrent

Mi iz budushego torrent

Information about the torrent Mi iz budushego. Seeders, leechers and torrent status is updated everyday.

If you want to download the video torrent Mi iz budushego you will need a torrent client.

Torrent Metasearch.

reviews
140
torrent contents

Mi_iz_budushego torrent

Mi_iz_budushego
elena_terleeva_-_ti_i_ya.mp36.55 Mb torrent search
Mi_iz_budushego.avi2.06 Gb torrent search

Sample info:
Duration: 02:42:46.68, start: 0.000000, bitrate: 1809 kb/s
Stream #0.0: Video: mpeg4, yuv420p, 688x368, 25.00 tb(r)
Stream #0.1: Audio: mp2, 48000 Hz, stereo, 192 kb/s
you may be interested in these torrents seeders leechers size found
Mi iz budushego     138 4 2.06 Gb 4 years ago

Mi_iz_budushego.avi


Mi iz budushego 2 tfile ru 6 0 1.36 Gb 3 years ago

Mi iz budushego 2 [tfile.ru].avi


Mi iz budushego (2008) XviD DVDRip 2 0 1.37 Gb 3 years ago

Mi_iz_budushego.2008.XviD.DVDRip.avi


Mi iz budushego (2008) XviD DVDRip 700mb 1 3 701.64 Mb 3 years ago

Mi.iz.budushego.2008.XviD.DVDRip_700mb.avi


Mi iz budushego (2008) XviD DVDRip Kinozal tv 1 0 1.37 Gb 3 years ago

Mi.iz.budushego.2008.XviD.DVDRip.Kinozal.tv.avi


Mi iz budushego (2008) XviD DVDRip Kinozal tv 1 0 1.37 Gb 3 years ago

Mi.iz.budushego.2008.XviD.DVDRip.Kinozal.tv.avi


Mi iz budushego (2008) XviD DVDRip by 007plus1 RST 1 0 700.22 Mb 4 years ago

Mi_iz_budushego.2008.XviD.DVDRip_by_007plus1[RST].avi


Mi iz budushego (2008) XviD DVDRip 0 1 1.37 Gb 3 years ago

Mi_iz_budushego.2008.XviD.DVDRip.avi


 

related search cloud

 budushego  terleeva  elena