Torrent Search | Torrent Meta Search | Widgets

Life of Pi (2012) 480p BD Rip Eng + Tam + Hid + Tel 1st

721.92 Mb
found 2 years ago
▲ seeders: 0 ▼ leechers:1
your vote:
real:
fake:
Direct Download
THANK YOU
download torrent
  Direct Downloadsponsored

Life of Pi (2012) 480p BD Rip Eng + Tam + Hid + Tel 1st torrent

Information about the torrent Life of Pi (2012) 480p BD Rip Eng + Tam + Hid + Tel 1st. Seeders, leechers and torrent status is updated everyday.

If you want to download the video torrent Life of Pi (2012) 480p BD Rip Eng + Tam + Hid + Tel 1st you will need a torrent client.

Torrent Metasearch.

tracker
seeders
leechers
↓ torrent client compatible list

↑ hide torrent client compatible list

Help torrentproject.se to stay alive .
Add links of torrentproject.se in your favorite forum, blog, youtube, facebook, twitter etc.
reviews
140
torrent contents

www.TamilRockers.net - Life of Pi (2012) 480p BD-Rip [Eng + Tam + Hid + Tel] [1st On Net] torrent

www.TamilRockers.net - Life of Pi (2012) 480p BD-Rip [Eng + Tam + Hid + Tel] [1st On Net]
www.TamilRockers.net - Life of Pi (2012) 480p BD-Rip [Eng + Tam + Hid + Tel] [1st On Net].mkv710.59 Mb torrent search
Sample.mkv11.33 Mb torrent search

Sample info:
Duration: 03:07:15.94, start: 0.000000, bitrate: 256 kb/s
Stream #0.0(eng): Video: h264 (Main), yuv420p, 720x384 [PAR 1112:1125 DAR 139:75], PAR 96:97 DAR 180:97, 23.98 fps, 23.98 tbr, 1k tbn, 47.95 tbc (default)
title	: www.TamilRockers.net
Stream #0.1(tam): Audio: ac3, 44100 Hz, stereo, s16, 128 kb/s (default) (forced)
title	: www.TamilRockers.net
Stream #0.2(eng): Audio: aac, 48000 Hz, 2 channels (FC), s16
title	: www.TamilRockers.net
Stream #0.3(tel): Audio: ac3, 44100 Hz, stereo, s16, 64 kb/s
title	: www.TamilRockers.net
Stream #0.4(hin): Audio: ac3, 44100 Hz, stereo, s16, 64 kb/s
title	: www.TamilRockers.net
Stream #0.5(eng): Subtitle: ass (default) (forced)
title	: www.TamilRockers.net
screenshots
Life of Pi 2012 torrent screenshot E519027CCAE882309BD3A82FC4D77D0A08743C0C Life of Pi 2012  torrent screenshot e519027ccae882309bd3a82fc4d77d0a08743c0c torrent Life of Pi 2012
www.TamilRockers.net - Life of Pi (2012) 480p BD-Rip [Eng + Tam + Hid + Tel] [1st On Net] images are auto generated please report any inapropriate images
 

related search cloud

 tamilrockers  life  sample