Torrent Search | Torrent Meta Search | Widgets

Alone In Berlin (2016) YTS AG

763.93 Mb
found 10 days ago
▲ seeders: 492 ▼ leechers:69
your vote:
real:
fake:
download torrent

Alone In Berlin (2016) YTS AG torrent

Information about the torrent Alone In Berlin (2016) YTS AG. Seeders, leechers and torrent status is updated several times per day.

If you want to download the hdrip torrent Alone In Berlin (2016) YTS AG you will need a torrent client.

Torrent Metasearch.

tracker
seeders
leechers
↓ torrent client compatible list

↑ hide torrent client compatible list

torrent contents

Alone In Berlin (2016) [YTS.AG] torrent

Alone In Berlin (2016) [YTS.AG]
WWW.YTS.AG.jpg103.35 Kb torrent search
Alone.In.Berlin.2016.720p.BluRay.x264-[YTS.AG].mp4763.83 Mb torrent search

Sample info:
Duration: 01:42:52.42, start: 0.042667, bitrate: 1038 kb/s
Stream #0:0	: Video: h264 (High) (avc1 / 0x31637661), yuv420p, 1280x534 [SAR 801:800 DAR 12:5], 899 kb/s, 24 fps, 24 tbr, 12288 tbn, 48 tbc (default)
handler_name	: VideoHandler
Stream #0:1	: Audio: aac (LC) (mp4a / 0x6134706D), 48000 Hz, stereo, fltp, 131 kb/s (default)
handler_name	: SoundHandler
screenshots
Images are auto generated please report any inapropriate images
 

related search cloud

 alone  berlin  bluray