Torrent Search | Torrent Meta Search | Widgets

czech dungeon 4 part 1 704x396 1000kbps

175.06 Mb
found 12 months ago
▲ seeders: 12 ▼ leechers:3
your vote:
real:
fake:
Direct Download
THANK YOU
download torrent
  Direct Downloadsponsored

czech dungeon 4 part 1 704x396 1000kbps torrent

Information about the torrent czech dungeon 4 part 1 704x396 1000kbps. Seeders, leechers and torrent status is updated everyday.

If you want to download the video torrent czech dungeon 4 part 1 704x396 1000kbps you will need a torrent client.

Torrent Metasearch.

tracker
seeders
leechers
↓ torrent client compatible list

↑ hide torrent client compatible list

Help torrentproject.se to stay alive .
Add links of torrentproject.se in your favorite forum, blog, youtube, facebook, twitter etc.
reviews
140
torrent contents

czech-dungeon-4-part-1-704x396-1000kbps.mp4 torrent

czech-dungeon-4-part-1-704x396-1000kbps.mp4175.06 Mb torrent search

Sample info:
Duration: 00:18:21.32, start: 0.000000, bitrate: 1333 kb/s
Stream #0:0	: Video: h264 (High) (avc1 / 0x31637661), yuv420p, 704x396 [SAR 1:1 DAR 16:9], 1199 kb/s, 25 fps, 25 tbr, 25 tbn, 50 tbc
handler_name	: VideoHandler
Stream #0:1	: Audio: aac (mp4a / 0x6134706D), 48000 Hz, stereo, s16, 127 kb/s
handler_name	: SoundHandler
screenshots
czech dungeon 4 part torrent screenshot E72BBA46C051A46CA2124AAA1658A27FF43CE714 czech dungeon 4 part  torrent screenshot e72bba46c051a46ca2124aaa1658a27ff43ce714 torrent czech dungeon 4 part
czech-dungeon-4-part-1-704x396-1000kbps.mp4 images are auto generated please report any inapropriate images
 

related search cloud

 kbps  part  dungeon  czech