Torrent Search | Torrent Meta Search | Widgets

Classic Teenage Mutant Ninja Turtles Season 1 9 DVDRip By MadMike

30.51 Gb
found 3 years ago
▲ seeders: 22 ▼ leechers:15
your vote:
real:
fake:
THANK YOU
download torrent

Classic Teenage Mutant Ninja Turtles Season 1 9 DVDRip By MadMike torrent

Information about the torrent Classic Teenage Mutant Ninja Turtles Season 1 9 DVDRip By MadMike. Seeders, leechers and torrent status is updated several times per day.

If you want to download the tv torrent Classic Teenage Mutant Ninja Turtles Season 1 9 DVDRip By MadMike you will need a torrent client.

Torrent Metasearch.

tracker
seeders
leechers
↓ torrent client compatible list

↑ hide torrent client compatible list

reviews
140
torrent contents

Classic Teenage Mutant Ninja Turtles Season 1-9 Dvdrip By MadMike torrent

Classic Teenage Mutant Ninja Turtles Season 1-9 Dvdrip By MadMike
 Teenage Mutant Ninja Turtles
 Season 7
S07E08 Shredder's New Sword.mp4175.12 Mb torrent search
S07E24 Dirk Savage_ Mutant Hunter.mp4175.09 Mb torrent search
S07E02 Rust Never Sleeps.mp4175.09 Mb torrent search
S07E07 The Irish Jig Is Up.mp4175.06 Mb torrent search
S07E03 A Real Snow Job.mp4175.06 Mb torrent search
S07E11 April Gets in Dutch.mp4175.06 Mb torrent search
S07E14 Night of the Dark Turtle.mp4175.04 Mb torrent search
S07E22 Revenge of the Fly.mp4175.03 Mb torrent search
S07E12 Northern Lights Out.mp4175.03 Mb torrent search
S07E20 Attack of the Neutrinos.mp4175.02 Mb torrent search
S07E06 Ring of Fire.mp4175.02 Mb torrent search
S07E04 Venice On the Half-Shell.mp4175.01 Mb torrent search
S07E13 Elementary, My Dear Turtle.mp4175.01 Mb torrent search
S07E09 The Lost Queen of Atlantis.mp4174.98 Mb torrent search
S07E15 The Starchild.mp4174.98 Mb torrent search
S07E18 White Belt, Black Heart.mp4174.97 Mb torrent search
S07E19 Night of the Rogues.mp4174.96 Mb torrent search
S07E10 Turtles on the Orient Express.mp4174.96 Mb torrent search
S07E26 Combat Land.mp4174.95 Mb torrent search
S07E21 Escape from the Planet of the Turtleoids.mp4174.95 Mb torrent search
S07E05 Artless.mp4174.94 Mb torrent search
S07E23 Atlantis Awakes.mp4174.92 Mb torrent search
S07E25 Invasion of the Krangezoids.mp4174.91 Mb torrent search

Classic Teenage Mutant Ninja Turtles Season 1-9 Dvdrip By MadMike
 Teenage Mutant Ninja Turtles
 Season 1
S01E02 Enter the Shredder.mp4174.9 Mb torrent search

Classic Teenage Mutant Ninja Turtles Season 1-9 Dvdrip By MadMike
 Teenage Mutant Ninja Turtles
 Season 7

Sample info:
Duration: 00:22:15.19, start: 0.000000, bitrate: 1100 kb/s
Stream #0.0	: Video: h264, yuv420p, 640x480 [PAR 1:1 DAR 4:3], 967 kb/s, 30 fps, 30 tbr, 90k tbn, 180k tbc
creation_time	: 2011-09-12 23:09:35
Stream #0.1(eng): Audio: aac, 48000 Hz, stereo, s16, 127 kb/s
creation_time	: 2011-09-12 23:09:35
screenshots
Classic Teenage Mutant Ninja torrent screenshot E7F81E5E123DE7FE6FBA61CB8449902B944E5331 Classic Teenage Mutant Ninja  torrent screenshot e7f81e5e123de7fe6fba61cb8449902b944e5331 torrent Classic Teenage Mutant Ninja
Images are auto generated please report any inapropriate images
you may be interested in these torrents seeders leechers size found
Classic Teenage Mutant Ninja Turtles TMNT 1987 1996 0 3 23.42 Gb 4 years ago

TMNT - 001 - Turtle Tracks.avi TMNT - 002 - Enter The Shredder.avi


Classic Teenage Mutant Ninja Turtles 1987 1996 TV RIP BG Audio 0 2 29.05 Gb 3 years ago

04 - Hot Rodding Teenagers from Dimension X.avi


 

related search cloud

 turtles  mutant  season  teenage  ninja  claic  madmike  dvdrip  turtle  atlantis