Torrent Search | Torrent Meta Search | Widgets

Adult Life Skills (2016) YTS AG

708.87 Mb
found 1 month ago
▲ seeders: 367 ▼ leechers:44
your vote:
real:
fake:
download torrent

Adult Life Skills (2016) YTS AG torrent

Information about the torrent Adult Life Skills (2016) YTS AG. Seeders, leechers and torrent status is updated several times per day.

If you want to download the hdrip torrent Adult Life Skills (2016) YTS AG you will need a torrent client.

Torrent Metasearch.

tracker
seeders
leechers
↓ torrent client compatible list

↑ hide torrent client compatible list

torrent contents

Adult Life Skills (2016) [YTS.AG] torrent

Adult Life Skills (2016) [YTS.AG]
WWW.YTS.AG.jpg103.35 Kb torrent search
Adult.Life.Skills.2016.720p.BluRay.x264-[YTS.AG].mp4708.77 Mb torrent search

Sample info:
Duration: 01:35:53.92, start: 0.042667, bitrate: 1033 kb/s
Stream #0:0	: Video: h264 (High) (avc1 / 0x31637661), yuv420p, 1280x534 [SAR 801:800 DAR 12:5], 899 kb/s, 24 fps, 24 tbr, 12288 tbn, 48 tbc (default)
handler_name	: VideoHandler
Stream #0:1	: Audio: aac (LC) (mp4a / 0x6134706D), 48000 Hz, stereo, fltp, 126 kb/s (default)
handler_name	: SoundHandler
screenshots
Images are auto generated please report any inapropriate images
 

related search cloud

 skills  life  adult  bluray