Torrent Search | Torrent Meta Search | Widgets

WowPorn Share The Load Aimee Ryan Cindy Vega 720p

624.05 Mb
found 2 years ago
▲ seeders: 3 ▼ leechers:2
your vote:
real:
fake:
Direct Download
THANK YOU
download torrent
  Direct Downloadsponsored

WowPorn Share The Load Aimee Ryan Cindy Vega 720p torrent

Information about the torrent WowPorn Share The Load Aimee Ryan Cindy Vega 720p. Seeders, leechers and torrent status is updated several times per day.

If you want to download the hdrip torrent WowPorn Share The Load Aimee Ryan Cindy Vega 720p you will need a torrent client.

Torrent Metasearch.

tracker
seeders
leechers
↓ torrent client compatible list

↑ hide torrent client compatible list

Help torrentproject.se to stay alive .
Add links of torrentproject.se in your favorite forum, blog, youtube, facebook, twitter etc.
reviews
140
torrent contents

WowPorn - Share The Load - Aimee Ryan, Cindy Vega [720p].mp4 torrent

WowPorn - Share The Load - Aimee Ryan, Cindy Vega [720p].mp4624.05 Mb torrent search

Sample info:
Duration: 00:25:18.35, start: 0.000000, bitrate: 3447 kb/s
Stream #0.0	: Video: h264 (High), yuv420p, 1280x720, 3336 kb/s, 29.97 fps, 29.97 tbr, 30k tbn, 59.94 tbc
creation_time	: 1970-01-01 00:00:00
Stream #0.1	: Audio: aac, 44100 Hz, stereo, s16, 104 kb/s
creation_time	: 1970-01-01 00:00:00
screenshots
WowPorn Share The Load torrent screenshot EC595665A1E29D7B4B2CA86790055950F639F519 WowPorn Share The Load  torrent screenshot ec595665a1e29d7b4b2ca86790055950f639f519 torrent WowPorn Share The Load
WowPorn - Share The Load - Aimee Ryan, Cindy Vega [720p].mp4 images are auto generated please report any inapropriate images
you may be interested in these torrents seeders leechers size found
WowPorn Sharing My Boy Anjelica Aimee Ryan 720p     8 1 460.04 Mb 11 months ago

WowPorn - Sharing My Boy - Anjelica, Aimee Ryan [720p].mp4


WowPorn Share Your Delight Anjelica Zoe 720p     1 1 464.99 Mb 2 years ago

WowPorn - Share Your Delight - Anjelica, Zoe [720p].mp4


WowPorn Share Your Delight Anjelica Zoe XviD 0 2 464.99 Mb 2 years ago

RARBG.com.txt WowPorn - Share Your Delight - Anjelica, Zoe [720p].mp4


 

related search cloud

 cindy  vega  ryan  aimee  share  load  wowporn