Torrent Search | Torrent Meta Search | Widgets

The Last Kingdom S02E06 HDTV x264 MTB eztv mkv

355.81 Mb
found 4 months ago
▲ seeders: 56 ▼ leechers:12
your vote:
real:
fake:
download torrent

The Last Kingdom S02E06 HDTV x264 MTB eztv mkv torrent

Information about the torrent The Last Kingdom S02E06 HDTV x264 MTB eztv mkv. Seeders, leechers and torrent status is updated everyday.

If you want to download the tv torrent The Last Kingdom S02E06 HDTV x264 MTB eztv mkv you will need a torrent client.

Torrent Metasearch.

tracker
seeders
leechers
↓ torrent client compatible list

↑ hide torrent client compatible list

torrent contents

The.Last.Kingdom.S02E06.HDTV.x264-MTB[eztv].mkv torrent

The.Last.Kingdom.S02E06.HDTV.x264-MTB[eztv].mkv355.81 Mb torrent search

Sample info:
Duration: 00:58:19.01, start: 0.000000, bitrate: 853 kb/s
Stream #0:0(eng): Video: h264 (High), yuv420p(tv, bt709/unknown/unknown), 720x404, SAR 1:1 DAR 180:101, 25 fps, 25 tbr, 1k tbn, 50 tbc (default)
Stream #0:1: Audio: aac (LC), 48000 Hz, stereo, fltp (default)
screenshots
Images are auto generated please report any inapropriate images
 

related search cloud

 eztv  hdtv  kingdom  last