Torrent Search | Torrent Meta Search | Widgets

O TAXITZIS SIRINA (2009) GREEK PORN MOVIE

618.7 Mb
found 2 years ago
▲ seeders: 5 ▼ leechers:2
your vote:
real:
fake:
Direct Download
THANK YOU
download torrent
  Direct Downloadsponsored

O TAXITZIS SIRINA (2009) GREEK PORN MOVIE torrent

Information about the torrent O TAXITZIS SIRINA (2009) GREEK PORN MOVIE. Seeders, leechers and torrent status is updated several times per day.

If you want to download the european torrent O TAXITZIS SIRINA (2009) GREEK PORN MOVIE you will need a torrent client.

Torrent Metasearch.

tracker
seeders
leechers
↓ torrent client compatible list

↑ hide torrent client compatible list

Help torrentproject.se to stay alive .
Add links of torrentproject.se in your favorite forum, blog, youtube, facebook, twitter etc.
reviews
140
torrent contents

O TAXITZIS SIRINA 2009 GREEK PORN MOVIE torrent

O TAXITZIS SIRINA 2009 GREEK PORN MOVIE
O TAXITZIS - PART 2.mp4152.1 Mb torrent search
O TAXITZIS - PART 4.mp4152.09 Mb torrent search
O TAXITZIS - PART 3.mp4152.06 Mb torrent search
O TAXITZIS - PART 1.mp4152.03 Mb torrent search
O TAXITZIS - PART 5.mp410.18 Mb torrent search

O TAXITZIS SIRINA 2009 GREEK PORN MOVIE
 SCREENSHOTS
taxitzis_X51_204.jpg53.25 Kb torrent search
taxitzis_X4_26.jpg51.44 Kb torrent search
taxitzis_x3_160.jpg50.99 Kb torrent search
taxitzis_x3_110.jpg46.2 Kb torrent search
O TAXITZIS.jpg23.56 Kb torrent search
taxitzis_X6_97.jpg9.67 Kb torrent search

O TAXITZIS SIRINA 2009 GREEK PORN MOVIE
INFO.txt700 bytes torrent search

Sample info:
Duration: 00:24:03.51, start: 0.036281, bitrate: 883 kb/s
Stream #0.0	: Video: mpeg4 (Simple Profile), yuv420p, 1024x768 [PAR 1:1 DAR 4:3], 750 kb/s, 25 fps, 25 tbr, 25 tbn, 25 tbc
Stream #0.1	: Audio: aac, 44100 Hz, stereo, s16, 128 kb/s
screenshots
O TAXITZIS SIRINA 2009 torrent screenshot F2DC2C0CB230474B67F7929EA1FD30EC6AE85163 O TAXITZIS SIRINA 2009  torrent screenshot f2dc2c0cb230474b67f7929ea1fd30ec6ae85163 torrent O TAXITZIS SIRINA 2009
O TAXITZIS SIRINA 2009 GREEK PORN MOVIE images are auto generated please report any inapropriate images
you may be interested in these torrents seeders leechers size found
Sirina The Taxi Driver O Taxitzis (2009) Greek Porn 6 3 901.06 Mb 1 year ago

Cover.jpg Screenshots.jpg Sirina.The.Taxi.Driver.O.Taxitzis.2009.Gr


 

related search cloud

 taxitzis  part  movie  porn  greek  sirina  info  screenshots