Torrent Search | Torrent Meta Search | Widgets

NHDTA 378

1.84 Gb
found 3 years ago
▲ seeders: 0 ▼ leechers:1
your vote:
real:
fake:
download torrent

NHDTA 378 torrent

Information about the torrent NHDTA 378. Seeders, leechers and torrent status is updated several times per day.

If you want to download the video torrent NHDTA 378 you will need a torrent client.

Torrent Metasearch.

No trackers with seeders or leechers have been found, this doesn't mean that the torrent NHDTA 378 is dead
comments/reviews
140
torrent contents

NHDTA-378 torrent

NHDTA-378
NHDTA-378.avi1.83 Gb torrent search
NHDTA-378.jpg201.99 Kb torrent search

Sample info:
Duration: 04:02:25.57, start: 0.000000, bitrate: 1083 kb/s
Stream #0.0: Video: mpeg4, yuv420p, 720x420 [PAR 1:1 DAR 12:7], 29.97 fps, 29.97 tbr, 29.97 tbn, 30k tbc
Stream #0.1: Audio: mp3, 44100 Hz, stereo, s16, 192 kb/s
title	: Audio Stream
screenshots
Images are auto generated please report any inapropriate images
 

related search cloud

 nhdta