Torrent Search | Torrent Meta Search | Widgets

La Esposa Numero 19 DVD XviD

685.11 Mb
found 3 years ago
▲ seeders: 0 ▼ leechers:1
your vote:
real:
fake:
download torrent

La Esposa Numero 19 DVD XviD torrent

Information about the torrent La Esposa Numero 19 DVD XviD. Seeders, leechers and torrent status is updated several times per day.

If you want to download the video torrent La Esposa Numero 19 DVD XviD you will need a torrent client.

Torrent Metasearch.

tracker
seeders
leechers
comments/reviews
140
torrent contents

La.Esposa.Numero.19.DVD.XviD.[www.DivxTotaL.com].avi torrent

La.Esposa.Numero.19.DVD.XviD.[www.DivxTotaL.com].avi685.11 Mb torrent search

Sample info:
Duration: 01:25:46.31, start: 0.000000, bitrate: 1116 kb/s
Stream #0:0: Video: mpeg4 (Advanced Simple Profile) (XVID / 0x44495658), yuv420p, 652x352 [SAR 1:1 DAR 163:88], 23.98 tbr, 23.98 tbn, 23.98 tbc
Stream #0:1: Audio: mp3 (U[0][0][0] / 0x0055), 48000 Hz, stereo, s16, 128 kb/s
screenshots
Images are auto generated please report any inapropriate images
 

related search cloud

 divxtotal  xvid  numero  esposa