Torrent Search | Torrent Meta Search | Widgets

La Esposa Numero 19 DVD XviD

685.11 Mb
found 12 months ago
▲ seeders: 4 ▼ leechers:0
your vote:
real:
fake:
Direct Download
THANK YOU
download torrent
  Direct Downloadsponsored

La Esposa Numero 19 DVD XviD torrent

Information about the torrent La Esposa Numero 19 DVD XviD. Seeders, leechers and torrent status is updated several times per day.

If you want to download the video torrent La Esposa Numero 19 DVD XviD you will need a torrent client.

Torrent Metasearch.

tracker
seeders
leechers
↓ torrent client compatible list

↑ hide torrent client compatible list

Help torrentproject.se to stay alive .
Add links of torrentproject.se in your favorite forum, blog, youtube, facebook, twitter etc.
reviews
140
torrent contents

La.Esposa.Numero.19.DVD.XviD.[www.DivxTotaL.com].avi torrent

La.Esposa.Numero.19.DVD.XviD.[www.DivxTotaL.com].avi685.11 Mb torrent search

Sample info:
Duration: 01:25:46.31, start: 0.000000, bitrate: 1116 kb/s
Stream #0:0: Video: mpeg4 (Advanced Simple Profile) (XVID / 0x44495658), yuv420p, 652x352 [SAR 1:1 DAR 163:88], 23.98 tbr, 23.98 tbn, 23.98 tbc
Stream #0:1: Audio: mp3 (U[0][0][0] / 0x0055), 48000 Hz, stereo, s16, 128 kb/s
screenshots
La Esposa Numero 19 torrent screenshot FBB4F096A3F3F8033BFC7C8A754E94D8D79A074C La Esposa Numero 19  torrent screenshot fbb4f096a3f3f8033bfc7c8a754e94d8d79a074c torrent La Esposa Numero 19
La.Esposa.Numero.19.DVD.XviD.[www.DivxTotaL.com].avi images are auto generated please report any inapropriate images
you may be interested in these torrents seeders leechers size found
La Esposa Numero 19 CVCD DVDRip 2 0 794.14 Mb 12 months ago

La.Esposa.Numero.19.CVCD.DVDrip.[www.TodoCVCD.com].mpg


La esposa numero 19 CharlyJerico 1 1 685.11 Mb 1 year ago

La.esposa.numero.19.CharlyJerico.avi


 

related search cloud

 divxtotal  xvid  numero  esposa