Torrent Search | Torrent Meta Search | Widgets

Community Sex Kayden Kross

231.67 Mb
found 3 years ago
▲ seeders: 0 ▼ leechers:1
your vote:
real:
fake:
download torrent

Community Sex Kayden Kross torrent

Information about the torrent Community Sex Kayden Kross. A torrent file stores metadata that can be used from a BitTorrent client.

If you want to download the video torrent Community Sex Kayden Kross you will need a torrent client.

Torrent Metasearch.

No trackers with seeders or leechers have been found, this doesn't mean that the torrent Community Sex Kayden Kross is dead
comments/reviews
140
torrent contents

Community Sex - Kayden Kross.mp4 torrent

Community Sex - Kayden Kross.mp4231.67 Mb torrent search

Sample info:
Duration: 00:18:44.10, start: 0.000000, bitrate: 1728 kb/s
Stream #0:0	: Video: h264 (Constrained Baseline) (avc1 / 0x31637661), yuv420p, 720x404 [SAR 404:405 DAR 16:9], 1616 kb/s, 23.98 fps, 23.98 tbr, 24k tbn, 47.95 tbc
handler_name	: VideoHandler
Stream #0:1	: Audio: aac (mp4a / 0x6134706D), 48000 Hz, stereo, s16, 109 kb/s
handler_name	: SoundHandler
screenshots
Images are auto generated please report any inapropriate images
 

related search cloud

 kayden  community