Torrent Search | Torrent Meta Search | Widgets

Angelina Valentine Phoenix Marie Kagney Linn Karter Alexis Ford Office 4 Play III Bigtitsatwork 04 12 12 HD

       
2.23 Gb
found 2 years ago
▲ seeders: 6 ▼ leechers:9
your vote:
real:
fake:
Direct Download
THANK YOU
download torrent
  Direct Downloadsponsored

Angelina Valentine Phoenix Marie Kagney Linn Karter Alexis Ford Office 4 Play III Bigtitsatwork 04 12 12 HD torrent

Information about the torrent Angelina Valentine Phoenix Marie Kagney Linn Karter Alexis Ford Office 4 Play III Bigtitsatwork 04 12 12 HD. Seeders, leechers and torrent status is updated everyday.

If you want to download the video torrent Angelina Valentine Phoenix Marie Kagney Linn Karter Alexis Ford Office 4 Play III Bigtitsatwork 04 12 12 HD you will need a torrent client.

Torrent Metasearch.

Torrent verified by kat.ph.

tracker
seeders
leechers
↓ torrent client compatible list

↑ hide torrent client compatible list

Help torrentproject.se to stay alive .
Add links of torrentproject.se in your favorite forum, blog, youtube, facebook, twitter etc.
reviews
140
torrent contents

Angelina.Valentine.Phoenix.Marie.Kagney.Linn.Karter.Alexis.Ford.Office.4.Play.III.Bigtitsatwork.04.12.12.HD.mp4 torrent

Angelina.Valentine.Phoenix.Marie.Kagney.Linn.Karter.Alexis.Ford.Office.4.Play.III.Bigtitsatwork.04.12.12.HD.mp42.23 Gb torrent search

Sample info:
Duration: 00:37:41.99, start: 0.000000, bitrate: 8459 kb/s
Stream #0.0(eng): Video: h264, yuv420p, 1280x720 [PAR 1:1 DAR 16:9], 7988 kb/s, 29.97 fps, 29.97 tbr, 30k tbn, 59.94 tbc
Stream #0.1(eng): Audio: aac, 48000 Hz, stereo, s16, 127 kb/s
Stream #0.2	: Data: rtp	/ 0x20707472, 328 kb/s
creation_time	: 2012-04-04 08:53:52
Stream #0.3	: Data: rtp	/ 0x20707472, 9 kb/s
creation_time	: 2012-04-04 08:53:57
screenshots
Angelina Valentine Phoenix Marie torrent screenshot FC2764CBA410BF3E06F6E7D64D86FFFC98821F4D Angelina Valentine Phoenix Marie  torrent screenshot fc2764cba410bf3e06f6e7d64d86fffc98821f4d torrent Angelina Valentine Phoenix Marie
Angelina.Valentine.Phoenix.Marie.Kagney.Linn.Karter.Alexis.Ford.Office.4.Play.III.Bigtitsatwork.04.12.12.HD.mp4 images are auto generated please report any inapropriate images
 

related search cloud

 ford  alexis  office  play  bigtitsatwork  karter  linn  valentine  phoenix  marie