Torrent Search | Torrent Meta Search | Widgets

The Age Of Shadows (2016) 1080p YTS AG

2.15 Gb
found 1 month ago
▲ seeders: 444 ▼ leechers:45
your vote:
real:
fake:
download torrent

The Age Of Shadows (2016) 1080p YTS AG torrent

Information about the torrent The Age Of Shadows (2016) 1080p YTS AG. Seeders, leechers and torrent status is updated everyday.

If you want to download the hdrip torrent The Age Of Shadows (2016) 1080p YTS AG you will need a torrent client.

Torrent Metasearch.

tracker
seeders
leechers
↓ torrent client compatible list

↑ hide torrent client compatible list

torrent contents

The Age Of Shadows (2016) [1080p] [YTS.AG] torrent

The Age Of Shadows (2016) [1080p] [YTS.AG]
WWW.YTS.AG.jpg103.35 Kb torrent search
The.Age.Of.Shadows.2016.1080p.BluRay.x264-[YTS.AG].mp42.15 Gb torrent search

Sample info:
Duration: 02:20:44.02, start: 0.042667, bitrate: 2189 kb/s
Stream #0:0	: Video: h264 (High) (avc1 / 0x31637661), yuv420p, 1920x800 [SAR 1:1 DAR 12:5], 2049 kb/s, 23.98 fps, 23.98 tbr, 24k tbn, 47.95 tbc (default)
handler_name	: VideoHandler
Stream #0:1	: Audio: aac (LC) (mp4a / 0x6134706D), 48000 Hz, stereo, fltp, 133 kb/s (default)
handler_name	: SoundHandler
screenshots
Images are auto generated please report any inapropriate images
 

related search cloud

 shadows  bluray