Torrent Search | Torrent Meta Search | Widgets

Casting Couch X Mandy Sky

407.07 Mb
found 1 year ago
▲ seeders: 7 ▼ leechers:3
your vote:
real:
fake:
Direct Download
THANK YOU
download torrent
  Direct Downloadsponsored

Casting Couch X Mandy Sky torrent

Information about the torrent Casting Couch X Mandy Sky. A torrent file stores metadata that can be used from a BitTorrent client.

If you want to download the video torrent Casting Couch X Mandy Sky you will need a torrent client.

Torrent Metasearch.

tracker
seeders
leechers
↓ torrent client compatible list

↑ hide torrent client compatible list

Help torrentproject.se to stay alive .
Add links of torrentproject.se in your favorite forum, blog, youtube, facebook, twitter etc.
reviews
140
torrent contents

Casting Couch X - Mandy Sky torrent

Casting Couch X - Mandy Sky
MandySky_CastingCouch-X.mp4407.07 Mb torrent search

Sample info:
Duration: 00:51:17.24, start: 0.000000, bitrate: 1109 kb/s
Stream #0.0(eng): Video: h264 (High), yuv420p, 750x420, 1005 kb/s, 29.97 fps, 29.97 tbr, 2997 tbn, 59.94 tbc
creation_time	: 2012-09-12 22:38:55
Stream #0.1(eng): Audio: aac, 48000 Hz, stereo, s16, 95 kb/s
creation_time	: 2012-09-12 22:38:55
screenshots
Casting Couch X Mandy torrent screenshot FD020CCD0C337F1E8249F861A55DF165A7F718C5 Casting Couch X Mandy  torrent screenshot fd020ccd0c337f1e8249f861a55df165a7f718c5 torrent Casting Couch X Mandy
Casting Couch X - Mandy Sky images are auto generated please report any inapropriate images
 

related search cloud

 castingcouch  mandysky  mandy  couch  casting