Torrent Search | Torrent Meta Search | Widgets

Malèna Uncut Version (2000) ita sub eng MIRCrew

       
1.48 Gb
found 3 years ago
▲ seeders: 1 ▼ leechers:1
your vote:
real:
fake:
download torrent

Malèna Uncut Version (2000) ita sub eng MIRCrew torrent

Information about the torrent Malèna Uncut Version (2000) ita sub eng MIRCrew. Seeders, leechers and torrent status is updated everyday.

If you want to download the video torrent Malèna Uncut Version (2000) ita sub eng MIRCrew you will need a torrent client.

Torrent Metasearch.

.

tracker
seeders
leechers
↓ torrent client compatible list

↑ hide torrent client compatible list

torrent contents

Malèna - Uncut Version (2000).ita.sub.eng.MIRCrew torrent

Malèna - Uncut Version (2000).ita.sub.eng.MIRCrew
Malèna - Uncut Version (2000).ita.sub.eng.MIRCrew.avi1.48 Gb torrent search
Malèna - Uncut Version (2000).ita.sub.eng.MIRCrew.eng.idx30.91 Kb torrent search
Malèna - Uncut Version (2000).ita.sub.eng.MIRCrew.eng.sub3.11 Mb torrent search

Sample info:
Duration: 01:48:04.97, start: 0.000000, bitrate: 1959 kb/s
Stream #0:0: Video: mpeg4 (Simple Profile) (XVID / 0x44495658), yuv420p, 720x304 [SAR 152:153 DAR 40:17], 23.98 tbr, 23.98 tbn, 23.98 tbc
Stream #0:1: Audio: ac3 ([0] [0][0] / 0x2000), 48000 Hz, 5.1(side), s16, 448 kb/s
screenshots
Images are auto generated please report any inapropriate images
 

related search cloud

 uncut  version  mircrew