Torrent Search | Torrent Meta Search | Widgets

Animal dog sex

       
492.1 Mb
found 3 years ago
▲ seeders: 8 ▼ leechers:3
your vote:
real:
fake:
download torrent

Animal dog sex torrent

Information about the torrent Animal dog sex. Seeders, leechers and torrent status is updated everyday.

If you want to download the video torrent Animal dog sex you will need a torrent client.

Torrent Metasearch.

Torrent verified by thepiratebay.se.

tracker
seeders
leechers
↓ torrent client compatible list

↑ hide torrent client compatible list

comments/reviews
140
torrent contents

Animal dog sex .mpg torrent

Animal dog sex .mpg492.1 Mb torrent search

Sample info:
Duration: 00:48:45.08, start: 0.217778, bitrate: 1411 kb/s
Stream #0.0[0x1c0]: Audio: mp2, 44100 Hz, 2 channels, s16, 224 kb/s
Stream #0.1[0x1e0]: Video: mpeg1video, yuv420p, 352x288 [PAR 1:1 DAR 11:9], 1152 kb/s, 25 fps, 25 tbr, 90k tbn, 25 tbc
screenshots
Animal dog sex torrent screenshot 069FCBECDEA9E05EF2D192CA7E5E79E496F4A88B Animal dog sex torrent screenshot 069fcbecdea9e05ef2d192ca7e5e79e496f4a88b torrent Animal dog sex
Images are auto generated please report any inapropriate images
you may be interested in these torrents seeders leechers size found
150522 ピンクパイナップル 3PingLovers!☆一夫二妻の世界へようこそ♪ THE ANIMATION     943 158 499.57 Mb 4 days ago

[150522][ピンクパイナップル]3PingLovers!☆一夫二妻の世界へようこそ♪ THE ANIMATION.mp4


150522 ピンクパイナップル アラルガンド The Animation1        712 87 305.37 Mb 4 days ago

[150522][ピンクパイナップル]アラルガンド The Animation.mp4


Batman Unlimited Animal instincts HDRip 402 20 1.48 Gb 25 days ago

Batman Unlimited - Animal instincts (HDRip) (Elitetorrent.net).avi


0064 en preview v01 animal core 375 0 5.29 Mb 2 years ago

0064-en-preview-v01-animal-core.wmv


Batman Unlimited Animal Instincts (2015) 1080p BluRay AC3 x264 ETRG     365 159 1.77 Gb 28 days ago

BATMAN_UNLIMITED_ANIM



0064 en content v01 animal core 327 0 1.5 Gb 2 years ago

0064-en-content-v01-animal-core.wmv


Spirited Away Anime DVDRip         318 6 700.31 Mb 4 years ago

Spirited Away [Anime][DvDRip][www.zonatorrent.com].avi


150424 ピンクパイナップル なまイキ ~生粋荘へようこそ!~ THE ANIMATION     306 11 216 Mb 1 month ago

[150424][ピンクパイナップル]なまイキ ~生粋荘へようこそ!~ THE ANIMATION.mp4


150424 ピンクパイナップル 炎の孕ませ乳ドルマイ★スター学園Z THE ANIMATION     300 11 401.7 Mb 1 month ago

[150424][ピンクパイナップル]炎の孕ませ乳ドルマイ★スター学園Z THE ANIMATION.mp4


 

related search cloud

 animal