Torrent Search | Torrent Meta Search | Widgets

Betrayed (1988) DVDRip VG

       
700.77 Mb
found 6 years ago
▲ seeders: 1 ▼ leechers:1
your vote:
real:
fake:

Betrayed

1988 · 127 min · 6.3/10 (4k votes) in imdb
Action, Drama, Romance, Thriller
Director: Costa-Gavras
Writer: Joe Eszterhas
An FBI agent posing as a combine driver becomes romantically involved with a Midwest farmer who lives a double life as a white supremacist.
download torrent

Betrayed (1988) DVDRip VG torrent

Information about the torrent Betrayed (1988) DVDRip VG. Seeders, leechers and torrent status is updated several times per day.

If you want to download the dvdrip torrent Betrayed (1988) DVDRip VG you will need a torrent client.

Torrent Metasearch.

.

tracker
seeders
leechers
↓ torrent client compatible list

↑ hide torrent client compatible list

comments/reviews
140
torrent contents

Betrayed[1988]DVDrip-VG.avi torrent

Betrayed[1988]DVDrip-VG.avi700.77 Mb torrent search

Sample info:
Duration: 02:01:37.84, start: 0.000000, bitrate: 805 kb/s
Stream #0.0: Video: mpeg4 (Advanced Simple Profile), yuv420p, 576x320 [PAR 1:1 DAR 9:5], 25 tbr, 25 tbn, 25 tbc
Stream #0.1: Audio: mp3, 48000 Hz, stereo, s16, 114 kb/s
screenshots
Images are auto generated please report any inapropriate images
 

related search cloud

 dvdrip  betrayed