Torrent Search | Torrent Meta Search | Widgets

Pink Panther and Pals 103 Pink Magic; Party Animals; Pink N Putt C W

       
174.77 Mb
found 5 years ago
▲ seeders: 1 ▼ leechers:1
your vote:
real:
fake:
download torrent

Pink Panther and Pals 103 Pink Magic; Party Animals; Pink N Putt C W torrent

Information about the torrent Pink Panther and Pals 103 Pink Magic; Party Animals; Pink N Putt C W. Seeders, leechers and torrent status is updated everyday.

If you want to download the video torrent Pink Panther and Pals 103 Pink Magic; Party Animals; Pink N Putt C W you will need a torrent client.

Torrent Metasearch.

Torrent verified by kat.ph.

tracker
seeders
leechers
↓ torrent client compatible list

↑ hide torrent client compatible list

comments/reviews
140
torrent contents

Pink Panther and Pals - 103 - Pink Magic; Party Animals; Pink N Putt [C-W].avi torrent

Pink Panther and Pals - 103 - Pink Magic; Party Animals; Pink N Putt [C-W].avi174.77 Mb torrent search

Sample info:
Duration: 00:21:32.95, start: 0.000000, bitrate: 1133 kb/s
Stream #0.0: Video: mpeg4 (Advanced Simple Profile), yuv420p, 704x396 [PAR 1:1 DAR 16:9], 23.98 tbr, 23.98 tbn, 23.98 tbc
Stream #0.1: Audio: mp3, 48000 Hz, stereo, s16, 128 kb/s
screenshots
Images are auto generated please report any inapropriate images
 

related search cloud

 pink  animals  putt  party  magic  panther  pals